<?xml version="1.0" standalone="no"?>
<!DOCTYPE svg PUBLIC "-//W3C//DTD SVG 1.1//EN" "http://www.w3.org/Graphics/SVG/1.1/DTD/svg11.dtd" >
<svg xmlns="http://www.w3.org/2000/svg">
<metadata>Generated by IcoMoon</metadata>
<defs>
<font id="icomoon" horiz-adv-x="1024">
<font-face units-per-em="1024" ascent="960" descent="-64" />
<missing-glyph horiz-adv-x="1024" />
<glyph unicode="&#x20;" horiz-adv-x="512" d="" />
<glyph unicode="&#xe900;" glyph-name="question" d="M750.899 574.578c0-16.57-13.438-30-30-30-16.57 0-30 13.43-30 30 0 16.563 13.43 29.992 30 29.992 16.563 0 30-13.43 30-29.992zM720.899 829.485c-51.977 0-94.258-42.289-94.258-94.258 0-16.57 13.43-30 30-30 16.563 0 29.992 13.43 29.992 30 0 18.891 15.375 34.266 34.266 34.266s34.266-15.375 34.266-34.266c0-18.891-15.375-34.266-34.266-34.266-16.57 0-30-13.43-30-29.992 0-16.57 13.43-30 30-30 51.977 0 94.258 42.281 94.258 94.258 0 51.969-42.289 94.258-94.258 94.258zM865.485 958h-289.172c-87.547 0-158.516-70.82-158.516-158.516v-449.821c0-24.531 28.141-38.883 47.992-24l120.524 90.391h279.172c87.547 0 158.516 70.828 158.516 158.516v224.914c0 87.555-70.82 158.516-158.516 158.516zM964.008 574.578c0-54.422-44.016-98.524-98.524-98.524h-289.172c-6.492 0-12.805-2.109-18-6l-80.523-60.398v389.828c0 54.422 44.016 98.524 98.524 98.524h289.172c54.422 0 98.524-44.016 98.524-98.524zM675.086 261.187c-17.805 17.797-41.469 27.602-66.641 27.602s-48.844-9.797-66.641-27.602l-24.344-24.336c-38.469-38.477-100.797-38.539-139.336 0l-75.281 75.273c-38.469 38.469-38.539 100.805 0 139.336l24.336 24.344c17.805 17.805 27.609 41.469 27.609 66.641s-9.805 48.844-27.609 66.641l-101.914 101.922c-36.742 36.742-96.539 36.742-133.281 0l-45.453-45.453c-29.938-29.938-46.422-69.742-46.422-112.086 0-43.438-10.469-261.953 173.469-445.891 182.219-182.219 397.586-173.469 445.883-173.469 42.344 0 82.156 16.492 112.094 46.43l45.445 45.445c36.75 36.75 36.75 96.539 0 133.281zM734.579 68.406l-45.445-45.445c-18.609-18.609-43.352-28.859-69.672-28.859h-27.086c-152.266 0-284.664 64.188-376.375 155.899-91.649 91.649-155.899 224.039-155.899 376.375v27.094c0 26.313 10.25 51.055 28.859 69.664l45.445 45.445c6.68 6.68 15.445 10.023 24.219 10.023s17.547-3.344 24.219-10.016l101.922-101.914c6.469-6.477 10.031-15.078 10.031-24.227s-3.563-17.75-10.039-24.219l-24.336-24.344c-29.938-29.93-46.422-69.742-46.422-112.086s16.492-82.156 46.422-112.094l75.289-75.273c29.938-29.945 69.742-46.43 112.086-46.43s82.148 16.484 112.086 46.422l24.344 24.344c6.469 6.469 15.070 10.031 24.219 10.031s17.75-3.563 24.219-10.031l101.922-101.914c13.352-13.359 13.352-35.086-0.008-48.445z" />
<glyph unicode="&#xe901;" d="M792.55 867.141h-417.741c-80.261 0-156.854-67.617-156.854-147.862v-783.279l178.521 219.224h396.074c80.23 0 121.831 66.054 121.831 146.314v417.741c0.015 80.245-41.585 147.862-121.831 147.862z" />
<glyph unicode="&#xe902;" d="M132.834-25.309c-2.461 0-4.937 0.387-7.367 1.192-9.472 3.173-15.848 12.041-15.848 22.023v783.279c0 95.258 80.524 178.815 172.33 178.815h417.741c99.235 0 152.784-92.131 152.784-178.815v-417.741c0-95.258-62.834-161.791-152.784-161.791h-384.497l-163.818-217.707c-4.457-5.943-11.391-9.255-18.541-9.255zM281.95 913.571c-65.899 0-125.901-63.098-125.901-132.386v-713.821l129.027 171.464c4.364 5.819 11.236 9.255 18.541 9.255h396.074c64.614 0 106.354 45.284 106.354 115.362v417.741c0.015 64.181-37.267 132.386-106.354 132.386h-417.741z" />
<glyph unicode="&#xe903;" d="M480.869 436.044c-5.943 0-11.87 2.26-16.405 6.794-9.069 9.069-9.069 23.772 0 32.826l122.512 122.512-122.512 122.496c-9.069 9.054-9.069 23.756 0 32.826s23.756 9.069 32.826 0l138.917-138.917c4.364-4.349 6.81-10.245 6.81-16.405s-2.445-12.072-6.81-16.421l-138.917-138.917c-4.535-4.535-10.478-6.794-16.421-6.794z" />
<glyph unicode="&#xe904;" d="M364.981 348.68c-12.815 0-23.215 10.385-23.215 23.215v170.164c0 50.314 46.832 77.46 90.893 77.46h156.73c12.815 0 23.215-10.385 23.215-23.215s-10.4-23.215-23.215-23.215h-156.746c-18.463 0-44.464-9.626-44.464-31.030v-170.164c0.015-12.83-10.4-23.215-23.199-23.215z" />
<glyph unicode="&#xe905;" d="M907.090 713.026c67.309 0 111.607-54.575 111.607-121.884v-350.387c0-67.324-34.021-110.199-101.33-110.199h-655.097c-67.309 0-142.423 42.875-142.423 110.199v350.387c0 67.309 59.699 121.884 127.023 121.884v0z" />
<glyph unicode="&#xe906;" d="M1024 636.848l-373.877-227.948c-37.048-21.183-82.484-21.438-119.772-0.674l-367.105 228.623z" />
<glyph unicode="&#xe907;" d="M812.501 145.537h-655.097c-78.215 0-157.404 42.995-157.404 125.18v350.387c0 78.245 67.594 144.355 147.606 144.355 12.419 0 22.471-10.052 22.471-22.471s-10.052-22.471-22.471-22.471c-55.639 0-102.664-45.527-102.664-99.413v-350.387c0-52.688 56.583-80.237 112.461-80.237h655.097c57.302 0 86.35 26.995 86.35 80.237v350.387c0 56.672-39.939 99.413-92.881 99.413-12.404 0-22.471 10.052-22.471 22.471s10.067 22.471 22.471 22.471c78.574 0 137.824-62.066 137.824-144.355v-350.387c0-78.38-49.077-125.18-131.292-125.18z" />
<glyph unicode="&#xe908;" d="M484.48 400.511c-24.224 0-48.343 6.022-69.931 18.037l-368.049 229.192c-10.532 6.562-13.752 20.419-7.191 30.95 6.547 10.532 20.419 13.737 30.95 7.191l367.105-228.623c29.273-16.254 66.695-16.059 96.746 1.109l357.997 227.409c10.502 6.651 24.374 3.565 31.025-6.921 6.651-10.472 3.55-24.359-6.921-31.010l-358.911-227.948c-22.621-12.943-47.789-19.385-72.822-19.385z" />
<glyph unicode="&#xe909;" glyph-name="null" d="M1012.268 476.314c-0.012 0.012-0.022 0.026-0.036 0.038l-209.008 208c-15.658 15.582-40.984 15.524-56.57-0.136-15.584-15.658-15.524-40.984 0.134-56.568l140.328-139.648h-847.116c-22.092 0-40-17.908-40-40s17.908-40 40-40h847.114l-140.324-139.648c-15.658-15.584-15.718-40.91-0.134-56.568 15.586-15.662 40.914-15.716 56.57-0.136l209.008 208c0.012 0.012 0.022 0.026 0.036 0.038 15.666 15.636 15.616 41.044-0.002 56.628z" />
<glyph unicode="&#xe90a;" glyph-name="search" d="M998.935 82.081l-222.458 222.454c-1.182 1.182-2.569 2.009-3.805 3.109 43.772 66.399 69.32 145.881 69.32 231.356 0 232.513-188.487 421-420.996 421s-420.996-188.487-420.996-420.996c0-232.505 188.483-420.996 420.992-420.996 85.479 0 164.956 25.548 231.356 69.32 1.1-1.231 1.923-2.618 3.105-3.8l222.462-222.462c33.418-33.414 87.598-33.414 121.020 0 33.414 33.418 33.414 87.598 0 121.016zM420.996 263.953c-151.911 0-275.054 123.144-275.054 275.050 0 151.911 123.148 275.054 275.054 275.054 151.902 0 275.050-123.148 275.050-275.054s-123.148-275.050-275.050-275.050z" />
<glyph unicode="&#xe90b;" glyph-name="cart" d="M37.882 836.925h108.595l154.687-559.394c4.419-16.416 19.572-27.781 36.619-27.781h475.422c15.153 0 28.412 8.84 34.725 22.729l172.995 397.764c5.052 11.995 3.788 25.254-3.158 35.988s-18.941 17.047-31.569 17.047h-525.298c-20.835 0-37.882-17.047-37.882-37.882s17.047-37.882 37.882-37.882h467.215l-140.164-321.999h-421.757l-154.684 559.394c-4.419 16.416-19.572 27.781-36.619 27.781h-137.009c-20.835 0-37.882-17.047-37.882-37.882s17.047-37.882 37.882-37.882zM301.795-16.69c47.353 0 85.866 38.513 85.866 85.866s-38.513 85.866-85.866 85.866-85.866-38.511-85.866-85.863 38.513-85.868 85.866-85.868zM838.462-16.69c1.894 0 4.419 0 6.313 0 22.729 1.894 43.565 11.995 58.718 29.675 15.153 17.047 22.099 39.146 20.835 62.506-3.158 46.722-44.195 82.71-91.548 79.553s-82.71-44.828-79.553-91.548c3.155-44.828 40.407-80.186 85.235-80.186z" />
<glyph unicode="&#xe90c;" glyph-name="power" d="M1007.24 542.157h-536.3c-5.99 0.008-11.53-3.191-14.525-8.38l-3.756-6.506-62.013 62.013-23.699-23.699 68.298-68.298-152.995-265.179c-2.995-5.188-2.995-11.571 0-16.759s8.527-8.38 14.509-8.38h301.669v-234.631h-586.578v-33.519h1005.562v201.112c0 9.255-7.504 16.759-16.759 16.759h-16.759v16.759h-33.519v-16.759h-83.797v16.759h-33.519v-16.759h-16.759c-9.255 0-16.759-7.504-16.759-16.759v-167.594h-100.556v234.631h134.075c5.99 0 11.522 3.191 14.517 8.38l174.181 301.669c2.995 5.188 2.995 11.571 0 16.759s-8.527 8.38-14.517 8.38zM682.224 240.488h-88.289l38.715 67.037h95.36l-38.707-67.037zM747.371 341.044h-95.311l38.715 67.037h95.36zM824.785 408.082h95.425l-38.699-67.037h-95.376zM710.064 441.601l38.699 67.037h95.36l-38.699-67.037zM671.349 441.601h-95.36l38.699 67.037h95.36zM537.274 441.601h-95.36l38.699 67.037h95.36zM422.56 408.082h95.425l-38.699-67.037h-95.376zM556.635 408.082h95.425l-38.699-67.037h-95.376zM593.935 307.526l-38.707-67.037h-95.368l38.715 67.037zM766.725 307.526h95.36l-38.707-67.037h-95.368zM939.499 441.601h-95.36l38.699 67.037h95.36zM364.5 307.526h95.36l-38.707-67.037h-95.368zM833.059 123.173h150.834v-150.834h-150.834zM665.465-27.662h-33.519v234.631h33.519zM313.518 743.269c0 55.532-45.016 100.556-100.556 100.556-55.532 0-100.556-45.024-100.556-100.556 0-55.54 45.024-100.556 100.556-100.556 55.515 0.057 100.507 45.041 100.556 100.556zM212.962 676.232c-37.021 0-67.037 30.016-67.037 67.037s30.016 67.037 67.037 67.037c37.029 0 67.037-30.016 67.037-67.037s-30.008-67.037-67.037-67.037zM196.202 944.382h33.519v-67.037h-33.519zM295.932 849.93l47.398 47.406 23.707-23.699-47.406-47.406zM347.037 760.029h67.037v-33.519h-67.037zM295.924 636.6l23.707 23.707 47.398-47.406-23.699-23.699zM196.202 609.194h33.519v-67.037h-33.519zM58.903 612.918l47.406 47.398 23.699-23.699-47.398-47.406zM11.849 760.029h67.037v-33.519h-67.037zM58.911 873.621l23.699 23.707 47.406-47.406-23.707-23.699zM933.615 56.135h-18.969l16.154 24.214-27.889 18.609-33.519-50.278c-3.429-5.147-3.748-11.759-0.835-17.209 2.921-5.45 8.601-8.854 14.779-8.854h18.977l-16.162-24.214 27.889-18.609 33.519 50.278c3.437 5.147 3.756 11.759 0.835 17.209-2.913 5.45-8.592 8.854-14.779 8.854zM447.593 760.029h150.834v-33.519h-150.834zM196.202 508.638h33.519v-150.834h-33.519zM0 554.014l35.205 35.204 23.707-23.699-35.213-35.213zM1.056 931.485l23.699 23.699 34.157-34.149-23.699-23.707zM367.020 921.019l35.205 35.204 23.707-23.699-35.213-35.204z" />
<glyph unicode="&#xe90d;" glyph-name="solar" d="M739.967 959.999h-739.967v-526.999h739.967zM709.967 463h-679.967v466.999h679.967zM207.336 488.141l15.156 15.156 15.156-15.156h117.179l15.156 15.156 15.156-15.156h117.179l15.156 15.156 15.156-15.156h117.179l30.156 30.156v356.398l-30.156 30.164h-117.179l-15.156-15.156-15.156 15.156h-117.179l-15.156-15.156-15.156 15.156h-117.179l-15.156-15.156-15.156 15.156h-117.179l-30.156-30.156v-356.406l30.156-30.156zM194.906 518.14h-31.164v98.906h43.75v-86.32zM163.742 745.953h43.75v-98.906h-43.75zM133.742 647.046h-43.742v98.906h43.742zM576.218 647.046h-43.742v98.906h43.742zM606.218 745.953h43.75v-98.906h-43.75zM502.476 647.046h-43.75v98.906h43.75zM428.726 647.046h-43.742v98.906h43.742zM354.984 647.046h-43.75v98.906h43.75zM281.234 647.046h-43.742v98.906h43.742zM237.492 530.726v86.32h43.742v-98.906h-31.164zM342.398 518.14h-31.164v98.906h43.75v-86.32zM384.984 530.726v86.32h43.742v-98.906h-31.164zM489.89 518.14h-31.164v98.906h43.75v-86.32zM532.476 530.726v86.32h43.742v-98.906h-31.164zM637.382 518.14h-31.164v98.906h43.75v-86.32zM649.967 862.273v-86.32h-43.75v98.906h31.164zM545.054 874.859h31.164v-98.906h-43.742v86.32zM502.476 862.273v-86.32h-43.75v98.906h31.164zM397.562 874.859h31.164v-98.906h-43.742v86.32zM354.984 862.273v-86.32h-43.75v98.906h31.164zM250.070 874.859h31.164v-98.906h-43.742v86.32zM207.492 862.273v-86.32h-43.75v98.906h31.164zM102.578 874.859h31.164v-98.906h-43.742v86.32zM90 617.047h43.742v-98.906h-31.164l-12.578 12.586zM398.984 45.266v-79.265h-58v442.007h-30v-472.007h118v96.844l195.492 195.492h92.719v30h-105.148zM993.209 362.336h-220.234l-30.781-30.789v-17.211h-313.21v93.672h-30v-123.672h373.21v34.781l13.211 13.219h195.382l13.211-13.219v-35.781h30v48.211zM398.984 258.336v-176.297l176.297 176.297zM428.984 228.336h73.867l-73.867-73.875zM742.194 236.555c0-33.687 27.406-61.094 61.094-61.094h159.609c33.695 0 61.101 27.406 61.101 61.094v21.781h-281.804zM992.896 228.336c-3.617-13.172-15.695-22.875-30-22.875h-159.609c-14.305 0-26.383 9.703-29.992 22.875zM868.092 114.985h30v-45.523h-30zM765.452 102.829l24.359 39.383 25.516-15.781-24.367-39.391zM950.811 126.399l25.508 15.781 24.367-39.383-25.508-15.789zM384.663-13.991h-30v108.492h30zM384.663 114.501h-30v30h30zM384.663 164.501h-30v30h30zM971.998 278.336h-47v30h47zM904.998 278.336h-30v30h30zM854.998 278.336h-30v30h30z" />
<glyph unicode="&#xe90e;" glyph-name="power-1" d="M1017.858 358.716l-102.4 85.333c-0.173 0.143-0.39 0.188-0.567 0.322-1.058 0.815-2.231 1.421-3.454 1.969-0.493 0.22-0.934 0.544-1.442 0.715-1.734 0.589-3.561 0.941-5.461 0.941h-51.2v85.333h17.067c9.425 0 17.067 7.633 17.067 17.067v57.737c10.878 12.437 17.067 28.030 17.067 44.663 0 12.516 5.175 24.45 14.575 33.634 28.533 27.3 41.308 65.583 35.051 105.050-8.25 52.316-50.859 93.216-103.65 99.45-34.033 3.917-68.224-6.801-93.666-29.468-25.451-22.662-40.043-55.179-40.043-89.195 0-33.316 13.425-64.267 37.867-87.249 8.476-7.883 13.333-19.616 13.333-32.218 0-16.634 6.189-32.226 17.067-44.663v-57.737c0-9.434 7.642-17.067 17.067-17.067h17.067v-85.333h-324.267c-4.525 0-8.866-1.801-12.066-5.001l-85.333-85.333c-3.262-3.262-4.836-7.631-4.841-12.066h-0.16v-68.267h34.133v51.2h358.4v-358.4h-119.467v-34.133h341.333c9.425 0 17.067 7.633 17.067 17.067v392.533c0 5.067-2.251 9.867-6.142 13.116zM853.333 567.467h-34.133v34.133h34.133v-34.133zM870.4 652.8c0-6.067-1.583-11.9-4.576-17.067h-5.508l12.774 36.518c-1.6-6.33-2.69-12.796-2.69-19.452zM777.984 709.95c-17.442 16.401-27.051 38.534-27.051 62.317 0 24.284 10.434 47.516 28.617 63.716 18.443 16.45 42.225 23.9 66.999 21.050 37.024-4.367 68.109-34.182 73.892-70.884 4.491-28.267-4.617-55.633-24.966-75.1-0.034-0.034-0.075-0.066-0.109-0.1-7.458-7.249-13.175-15.654-17.367-24.674l25.577 73.107c0.634 1.818 0.958 3.716 0.958 5.634 0 15.266-8.367 29.233-21.833 36.45-13.474 7.234-29.741 6.434-42.426-2.050-2.434-1.6-5.574-1.6-8.009 0-12.7 8.467-28.966 9.267-42.434 2.050s-21.833-21.182-21.833-36.448c0-1.916 0.324-3.817 0.958-5.634l25.25-72.177c-4.045 8.533-9.367 16.369-16.224 22.743zM806.716 635.733c-2.991 5.133-4.582 10.982-4.582 17.067 0 5.984-0.768 11.836-2.022 17.534l12.107-34.601h-5.502zM802.417 767.117c0.668 2.366 2.4 3.65 3.524 4.25 1.434 0.766 4.275 1.717 7.401-0.35 13.916-9.299 31.925-9.267 45.858 0 3.134 2.084 5.975 1.116 7.392 0.35 1.124-0.599 2.859-1.884 3.524-4.25l-33.85-96.766-33.85 96.766zM795.949 362.667h-345.148l51.2 51.2h355.388l-61.44-51.2zM989.867-29.867h-170.667v367.467l85.335 71.115 85.331-71.115v-367.467zM819.2 960h34.133v-34.133h-34.133v34.133zM691.464 892.923l24.132 24.139 24.139-24.132-24.132-24.139-24.139 24.132zM648.533 789.333h34.133v-34.133h-34.133v34.133zM691.434 651.603l24.136 24.136 24.136-24.136-24.136-24.136-24.136 24.136zM932.789 651.545l24.132 24.139 24.139-24.132-24.132-24.139-24.139 24.132zM989.867 789.333h34.133v-34.133h-34.133v34.133zM932.792 892.929l24.136 24.136 24.136-24.136-24.136-24.136-24.136 24.136zM322.466 882.3l-34.133 68.267c-5.783 11.567-24.749 11.567-30.532 0l-34.133-68.267c-2.641-5.284-2.357-11.567 0.751-16.599s8.599-8.1 14.515-8.1h68.267c5.916 0 11.409 3.068 14.517 8.1s3.392 11.317 0.749 16.599zM266.549 891.733l6.517 13.033 6.517-13.033h-13.035zM162.15 835.332c-2.050 5.551-6.825 9.634-12.625 10.816l-74.807 15.134c-6.291 1.184-12.849-1.133-16.834-6.234-3.974-5.084-4.742-12-1.958-17.833l32.783-68.934c2.534-5.333 7.659-8.983 13.542-9.634 0.625-0.066 1.25-0.1 1.867-0.1 5.216 0 10.191 2.4 13.451 6.566l42.025 53.801c3.642 4.653 4.608 10.869 2.558 16.418zM107.667 807.883l-6.259 13.167 14.283-2.884-8.023-10.283zM115.725 612.533l-16.516 66.234c-1.434 5.734-5.734 10.317-11.366 12.117-5.609 1.818-11.808 0.567-16.292-3.283l-57.975-49.634c-4.909-4.201-7.025-10.816-5.459-17.101 1.566-6.268 6.534-11.117 12.849-12.516l74.492-16.599c1.233-0.284 2.475-0.416 3.708-0.416 4.55 0 8.975 1.818 12.218 5.15 4.134 4.233 5.777 10.3 4.343 16.049zM61.7 634.234l11.074 9.483 3.151-12.651-14.225 3.168zM244.8 503.851c-0.791 5.85-4.567 10.884-9.967 13.284l-62.366 27.767c-5.391 2.417-11.65 1.867-16.559-1.483-4.883-3.334-7.699-8.949-7.433-14.867l3.418-76.25c0.292-6.449 4.201-12.201 10.108-14.816 2.225-1.001 4.591-1.483 6.942-1.483 3.883 0 7.733 1.333 10.842 3.883l58.95 48.484c4.565 3.761 6.865 9.613 6.065 15.479zM184.467 487.934l-0.659 14.566 11.917-5.316-11.258-9.25zM408.401 537.634c-0.141 5.901-3.341 11.317-8.45 14.3-5.109 2.967-11.418 3.117-16.617 0.333l-60.284-32.049c-5.216-2.767-8.634-8.049-9.018-13.967-0.384-5.901 2.317-11.584 7.142-14.999l62.182-44.25c2.942-2.099 6.409-3.166 9.892-3.166 2.741 0 5.5 0.668 8.009 2.001 5.709 3.034 9.216 9.033 9.050 15.501l-1.907 76.297zM363.458 503.051l11.509 6.116 0.367-14.566-11.876 8.45zM535.341 656.183l-61.299 45.468c-4.742 3.533-10.967 4.333-16.484 2.15-5.491-2.182-9.468-7.068-10.492-12.883l-11.859-67.234c-1.024-5.833 1.033-11.767 5.451-15.699 3.166-2.833 7.226-4.333 11.358-4.333 1.626 0 3.266 0.233 4.866 0.717l73.158 21.766c6.199 1.833 10.816 7.017 11.942 13.382s-1.449 12.815-6.641 16.666zM473.626 644.949l2.259 12.849 11.708-8.7-13.967-4.149zM475.991 869.649c-4.324 4.817-11.008 6.75-17.225 5.033l-73.566-20.316c-5.7-1.566-10.182-5.984-11.842-11.667s-0.258-11.799 3.699-16.201l45.675-50.733c3.266-3.633 7.891-5.649 12.683-5.649 1.009 0 2.033 0.083 3.051 0.267 5.818 1.067 10.675 5.050 12.834 10.566l27.891 71.051c2.366 6.016 1.124 12.849-3.2 17.649zM429.626 819.134l-8.725 9.683 14.050 3.883-5.325-13.566zM273.067 823.467c-75.283 0-136.533-61.25-136.533-136.533s61.25-136.533 136.533-136.533 136.533 61.25 136.533 136.533-61.25 136.533-136.533 136.533zM273.067 584.533c-56.467 0-102.4 45.933-102.4 102.4s45.933 102.4 102.4 102.4 102.4-45.933 102.4-102.4-45.933-102.4-102.4-102.4zM971.782 163.684c-2.449 6.75-8.866 11.249-16.049 11.249h-55.258l66.182 55.151-21.85 26.234-102.4-85.333c-5.517-4.599-7.567-12.166-5.124-18.933 2.449-6.75 8.866-11.249 16.049-11.249h55.258l-66.182-55.151 21.85-26.234 102.4 85.333c5.517 4.599 7.567 12.166 5.124 18.933zM187.733 243.2h-170.667c-9.425 0-17.067-7.633-17.067-17.067v-170.667c0-9.434 7.642-17.067 17.067-17.067h68.267v-68.267h-34.133v-34.133h102.4v34.133h-34.133v68.267h68.267c9.425 0 17.067 7.633 17.067 17.067v170.667c0 9.434-7.642 17.067-17.067 17.067zM85.333 72.533h-51.2v51.2h51.2v-51.2zM85.333 157.867h-51.2v51.2h51.2v-51.2zM170.667 72.533h-51.2v51.2h51.2v-51.2zM170.667 157.867h-51.2v51.2h51.2v-51.2zM426.667 243.2h-170.667c-9.425 0-17.067-7.633-17.067-17.067v-170.667c0-9.434 7.642-17.067 17.067-17.067h68.267v-68.267h-34.133v-34.133h102.4v34.133h-34.133v68.267h68.267c9.425 0 17.067 7.633 17.067 17.067v170.667c0 9.434-7.642 17.067-17.067 17.067zM324.267 72.533h-51.2v51.2h51.2v-51.2zM324.267 157.867h-51.2v51.2h51.2v-51.2zM409.6 72.533h-51.2v51.2h51.2v-51.2zM409.6 157.867h-51.2v51.2h51.2v-51.2zM665.6 243.2h-170.667c-9.425 0-17.067-7.633-17.067-17.067v-170.667c0-9.434 7.642-17.067 17.067-17.067h68.267v-68.267h-34.133v-34.133h102.4v34.133h-34.133v68.267h68.267c9.425 0 17.067 7.633 17.067 17.067v170.667c0 9.434-7.642 17.067-17.067 17.067zM563.2 72.533h-51.2v51.2h51.2v-51.2zM563.2 157.867h-51.2v51.2h51.2v-51.2zM648.533 72.533h-51.2v51.2h51.2v-51.2zM648.533 157.867h-51.2v51.2h51.2v-51.2zM256 448h34.133v-34.133h-34.133v34.133zM256 379.733h34.133v-34.133h-34.133v34.133zM256 311.467h34.133v-34.133h-34.133v34.133zM301.065 445.226l32.059 11.671 11.677-32.075-32.059-11.671-11.677 32.075zM324.421 381.065l32.059 11.671 11.677-32.075-32.059-11.671-11.677 32.075zM347.776 316.859l32.059 11.671 11.677-32.075-32.059-11.671-11.677 32.075zM201.365 424.893l11.677 32.075 32.059-11.671-11.677-32.075-32.059 11.671zM177.971 360.688l11.67 32.075 32.059-11.664-11.67-32.075-32.059 11.664zM154.72 296.622l11.677 32.075 32.059-11.671-11.677-32.075-32.059 11.671z" />
<glyph unicode="&#xe90f;" glyph-name="back" d="M311.568 448.027l462.455 462.455c11.374 11.374 11.374 29.614 0 40.988s-29.614 11.374-40.988 0l-483.056-483.056c-11.374-11.374-11.374-29.614 0-40.988l483.056-482.842c5.58-5.58 13.090-8.584 20.387-8.584s14.807 2.79 20.387 8.584c11.374 11.374 11.374 29.614 0 40.988l-462.24 462.455z" />
<glyph unicode="&#xe910;" glyph-name="solar-energy" d="M529.050 823.466c9.426 0 17.066 7.64 17.066 17.066v102.4c0 9.426-7.64 17.066-17.066 17.066s-17.066-7.64-17.066-17.066v-102.4c0-9.424 7.642-17.066 17.066-17.066zM529.050 72.534c-9.426 0-17.066-7.64-17.066-17.066v-102.4c0-9.426 7.64-17.066 17.066-17.066s17.066 7.64 17.066 17.066v102.4c0.002 9.424-7.64 17.066-17.066 17.066zM153.584 448c0 9.426-7.64 17.066-17.066 17.066h-102.4c-9.426 0-17.066-7.64-17.066-17.066s7.64-17.066 17.066-17.066h102.4c9.426 0 17.066 7.64 17.066 17.066zM239.42 182.504l-97.912-97.912c-6.666-6.666-6.666-17.47 0-24.136 6.664-6.664 17.47-6.664 24.136 0l97.912 97.912c6.664 6.664 6.664 17.472 0 24.136-6.664 6.666-17.47 6.666-24.136 0zM818.674 182.512c-6.664 6.666-17.47 6.666-24.136 0-6.666-6.664-6.666-17.47 0-24.136l97.912-97.912c6.664-6.664 17.47-6.664 24.136 0s6.664 17.47 0 24.136l-97.912 97.912zM239.42 713.496c6.664-6.666 17.47-6.666 24.136 0 6.664 6.664 6.664 17.47 0 24.136l-97.91 97.912c-6.664 6.664-17.47 6.664-24.136 0-6.666-6.666-6.666-17.47 0-24.136l97.91-97.912zM183.432 301.294c-3.682 8.676-13.702 12.724-22.378 9.042l-47.122-20.002c-8.676-3.682-12.724-13.702-9.042-22.378s13.702-12.724 22.378-9.042l47.122 20.002c8.678 3.682 12.726 13.702 9.042 22.378zM946.868 297.598l-47.462 19.182c-8.738 3.532-18.686-0.688-22.218-9.428-3.532-8.738 0.688-18.686 9.428-22.218l47.462-19.182c8.738-3.532 18.686 0.69 22.218 9.428s-0.688 18.686-9.428 22.218zM111.242 598.406l47.462-19.182c8.738-3.532 18.686 0.688 22.218 9.428s-0.688 18.686-9.428 22.218l-47.462 19.182c-8.738 3.532-18.686-0.688-22.218-9.428s0.688-18.686 9.428-22.218zM698.14 93.346c-3.682 8.676-13.7 12.726-22.378 9.044-8.676-3.682-12.726-13.7-9.044-22.378l20.002-47.138c3.682-8.676 13.7-12.726 22.378-9.044 8.676 3.682 12.726 13.7 9.044 22.378l-20.002 47.138zM359.966 802.662c3.682-8.676 13.7-12.726 22.378-9.044 8.676 3.682 12.726 13.7 9.044 22.378l-20.002 47.138c-3.682 8.676-13.7 12.726-22.378 9.044-8.676-3.682-12.726-13.7-9.044-22.378l20.002-47.138zM388.402 99.88c-8.74 3.53-18.686-0.692-22.218-9.43l-19.182-47.48c-3.532-8.74 0.692-18.686 9.43-22.218 8.74-3.53 18.686 0.692 22.218 9.43l19.182 47.48c3.532 8.74-0.69 18.688-9.43 22.218zM885.914 478.846c22.35 9.586 43.288 24.154 61.31 43.768l7.45 8.098c69.7 75.844 69.7 198.198 0.006 274.034l-122.98 132.712c-6.756 7.29-18.286 7.288-25.040-0.004l-122.862-132.66c-7.278-7.918-13.75-16.368-19.508-25.192-42.81 17.556-88.45 26.788-135.236 26.788-197.944 0-358.4-160.456-358.4-358.4 0-197.932 160.462-358.4 358.4-358.4 197.928 0 358.4 160.474 358.4 358.4 0 9.962-0.528 20.082-1.54 30.856zM819.186 900.746l110.41-119.146c57.644-62.726 57.644-165.004-0.048-227.782l-7.452-8.1c-16.41-17.86-35.71-30.546-56.228-38.12l-3.786-1.272c-17.532-5.894-35.644-8.060-53.434-6.664-0.048 0.004-0.094 0.008-0.142 0.012-4.682 0.372-9.342 1-13.964 1.864-0.228 0.042-0.458 0.082-0.686 0.126-1.482 0.286-2.96 0.594-4.432 0.928-0.166 0.038-0.332 0.080-0.498 0.118-2.866 0.664-5.712 1.424-8.538 2.276-0.224 0.068-0.45 0.13-0.676 0.198-1.37 0.422-2.734 0.868-4.094 1.334-0.416 0.142-0.832 0.292-1.248 0.44-2.758 0.974-5.496 2.030-8.202 3.186-0.068 0.028-0.136 0.054-0.202 0.084-1.256 0.538-2.502 1.108-3.746 1.686-0.564 0.262-1.128 0.53-1.69 0.802-3.75 1.804-7.436 3.788-11.056 5.946-0.762 0.456-1.522 0.916-2.28 1.386-0.974 0.606-1.948 1.216-2.91 1.848-1.372 0.902-2.732 1.828-4.082 2.782-0.888 0.626-1.764 1.278-2.64 1.928-1.032 0.766-2.060 1.542-3.078 2.34-0.718 0.562-1.436 1.126-2.146 1.704-1.566 1.274-3.12 2.572-4.648 3.924-0.4 0.354-0.79 0.726-1.188 1.084-1.312 1.184-2.608 2.396-3.89 3.638-0.522 0.506-1.042 1.014-1.558 1.528-1.486 1.48-2.956 2.99-4.398 4.55-0.106 0.114-0.216 0.222-0.322 0.338l-2.266 2.462-5.174 5.636c-1.71 1.862-3.362 3.764-4.972 5.692-0.37 0.442-0.722 0.896-1.086 1.344-1.168 1.432-2.312 2.878-3.426 4.344-0.54 0.712-1.068 1.432-1.596 2.152-0.878 1.198-1.738 2.408-2.58 3.628-0.612 0.888-1.222 1.776-1.816 2.674-0.674 1.018-1.32 2.048-1.97 3.080-0.678 1.080-1.364 2.154-2.016 3.248-0.34 0.57-0.656 1.152-0.99 1.726-29.186 50.424-30.646 115.554-2.062 168.086l3.796 6.976c5.36 8.798 11.592 17.148 18.708 24.892l110.302 119.094zM529.054 123.724c-179.086 0-324.266 145.186-324.266 324.266 0 179.092 145.174 324.266 324.266 324.266 41.1 0 81.226-7.858 119.022-22.888-23.85-55.728-21.928-121.080 5.658-175.27 0.378-0.744 0.756-1.488 1.144-2.228 0.806-1.534 1.626-3.058 2.472-4.572 0.582-1.044 1.188-2.076 1.788-3.11 0.758-1.298 1.502-2.602 2.292-3.886 1.362-2.22 2.768-4.414 4.222-6.582 0.514-0.766 1.058-1.516 1.584-2.276 1.148-1.662 2.316-3.31 3.52-4.94 0.566-0.766 1.144-1.524 1.722-2.284 1.312-1.722 2.656-3.42 4.028-5.102 0.464-0.568 0.92-1.14 1.39-1.702 1.896-2.266 3.83-4.508 5.84-6.696l7.45-8.102c0.080-0.086 0.162-0.164 0.242-0.25 1.848-2.004 3.74-3.944 5.654-5.846 0.494-0.492 0.984-0.984 1.482-1.468 1.878-1.826 3.782-3.608 5.718-5.338 0.6-0.536 1.208-1.056 1.814-1.584 1.552-1.352 3.122-2.674 4.708-3.964 0.788-0.642 1.576-1.282 2.372-1.908 1.618-1.27 3.252-2.506 4.902-3.712 0.952-0.698 1.906-1.386 2.868-2.062 1.48-1.038 2.974-2.050 4.478-3.040 1.382-0.91 2.774-1.788 4.172-2.654 0.942-0.582 1.886-1.156 2.838-1.718 2.106-1.248 4.23-2.442 6.372-3.594 0.744-0.4 1.484-0.81 2.232-1.198 1.398-0.726 2.802-1.424 4.212-2.108 0.636-0.308 1.276-0.602 1.916-0.902 2.49-1.17 4.996-2.276 7.524-3.32 0.606-0.25 1.21-0.502 1.818-0.744 4.654-1.858 9.362-3.502 14.116-4.932 0.618-0.186 1.238-0.364 1.856-0.544 2.732-0.788 5.474-1.504 8.23-2.152 0.514-0.12 1.026-0.25 1.54-0.366 1.574-0.354 3.15-0.686 4.73-0.994 0.5-0.098 1.002-0.182 1.504-0.276 2.818-0.524 5.642-0.974 8.476-1.352 0.596-0.080 1.192-0.16 1.788-0.232 5.046-0.618 10.108-1.006 15.178-1.166 0.314-0.010 0.628-0.016 0.942-0.024 12.61-0.326 25.24 0.738 37.676 3.25 0.516-7.074 0.778-13.82 0.778-20.434-0.002-179.070-145.192-324.262-324.268-324.262zM597.318 601.6h-85.334c-6.464 0-12.374-3.652-15.264-9.434l-85.334-170.666c-5.674-11.348 2.578-24.7 15.264-24.7h28.262l-44.608-148.696c-5.444-18.148 18.322-30.328 29.874-15.31l170.666 221.866c8.634 11.224 0.632 27.472-13.528 27.472h-25.316l41.004 95.678c4.826 11.262-3.434 23.79-15.686 23.79zM546.118 448h16.54l-93.030-120.94 24.57 81.902c3.286 10.95-4.914 21.97-16.346 21.97h-23.586l68.266 136.534h48.904l-41.004-95.678c-4.828-11.26 3.434-23.788 15.686-23.788z" />
<glyph unicode="&#xe911;" glyph-name="farm" d="M1004 158.086c-167.031 0-330.969-68.516-449.781-187.977-7.797-7.836-7.758-20.5 0.070-28.281 3.906-3.883 9-5.82 14.109-5.82 5.133 0 10.266 1.961 14.18 5.891 111.359 111.969 264.961 176.187 421.422 176.187 11.047 0 20 8.953 20 20 0 11.039-8.953 20-20 20zM586.937 176.609c-6.187 9.156-18.617 11.562-27.766 5.375-85.523-57.766-157.75-130.047-214.687-214.828-6.156-9.172-3.719-21.602 5.453-27.758 3.43-2.297 7.297-3.398 11.133-3.398 6.437 0 12.766 3.109 16.625 8.852 54.047 80.492 122.633 149.125 203.867 203.992 9.148 6.18 11.555 18.609 5.375 27.766zM1004 319.086c-89.414 0-177.914-15.273-263.039-45.398-10.414-3.68-15.867-15.109-12.18-25.523 2.898-8.211 10.617-13.336 18.852-13.336 2.211 0 4.461 0.375 6.672 1.156 80.828 28.602 164.836 43.102 249.695 43.102 11.047 0 20 8.953 20 20s-8.953 20-20 20zM286.555 73.242c131.578 171.555 322.047 290.672 532.219 335.312 0.039 0.008 0.078 0.016 0.109 0.023 60.398 12.82 122.406 19.5 185.117 19.5 11.039 0 20 8.961 20 20 0 11.047-8.961 20-20 20-56.867 0-113.516-5.203-169.203-15.383v43.172c72.289 61.195 111.969 141.383 111.969 226.773 0 88.289-42.414 171.016-119.437 232.945-7.32 5.883-17.75 5.883-25.070 0-77.016-61.93-119.437-144.656-119.437-232.945 0-85.391 39.687-165.578 111.969-226.773v-51.352c-38-8.648-75.453-19.672-112.125-32.945v117.102c0 5.5-2.219 10.477-5.812 14.094v0.008l-112 112.664c-3.758 3.773-8.859 5.898-14.187 5.898h-228.664c-5.32 0-10.43-2.125-14.18-5.898l-112-112.672c-3.594-3.617-5.82-8.594-5.82-14.102v-76.375c-13.937 2.555-27.937 4.805-42 6.727v71.297c54.664 47.023 84.656 108.352 84.656 173.687 0 68.258-32.719 132.148-92.125 179.922-7.32 5.883-17.742 5.883-25.062 0-59.406-47.766-92.125-111.664-92.125-179.922 0-65.328 29.992-126.656 84.656-173.68v-66.703c-29.164 2.727-58.523 4.133-88 4.133-11.047 0-20-8.953-20-20s8.953-20 20-20c159.922 0 316.344-42.312 454.242-122.586-33.039-22.453-64.594-46.977-94.469-73.375-111.727 56.922-235.867 86.961-359.773 86.961-11.039 0-20-8.953-20-20s8.961-20 20-20c112.742 0 225.711-26.219 328.344-76.008-30.406-29.414-58.828-60.883-85.055-94.148-77.797 32.625-159.562 49.156-243.289 49.156-11.039 0-20-8.953-20-20s8.961-20 20-20c75 0 148.328-14.219 218.375-42.219-13.82-19.203-26.953-38.93-39.305-59.18l-30.477-49.93c-5.758-9.422-2.773-21.734 6.648-27.484 3.258-1.992 6.852-2.937 10.406-2.937 6.734 0 13.32 3.414 17.086 9.586l30.477 49.93c15.891 26.039 33.062 51.094 51.367 75.148 0.719 0.797 1.391 1.648 1.977 2.578zM722.828 722.641c0 71.086 32.523 138.422 91.969 191.187 59.445-52.766 91.969-120.102 91.969-191.187 0-62.641-25.281-122.383-71.969-171.797v153.156c0 11.047-8.953 20-20 20s-20-8.953-20-20v-153.156c-46.695 49.414-71.969 109.156-71.969 171.797zM63.344 704c0 51.016 22.836 99.469 64.656 137.969 41.82-38.492 64.656-86.953 64.656-137.969 0-42.164-15.617-82.586-44.656-117.086v133.086c0 11.047-8.953 20-20 20-11.039 0-20-8.953-20-20v-133.086c-29.039 34.5-44.656 74.922-44.656 117.086zM614.586 548.672h-172.266l-72.234 72.664h172.266zM322 612.969l63.922-64.297h-127.836zM230 508.672h184v-127.187c-9.273 4.266-18.602 8.391-28 12.352v67.172c0 11.039-8.953 20-20 20h-88c-11.039 0-20-8.961-20-20v-23.781c-9.297 2.422-18.625 4.719-28 6.859zM346 409.617c-15.859 5.844-31.859 11.266-48 16.242v15.148h48zM454 361.914v146.758h188.672v-112.625c-34.258-14.195-67.734-30.398-100.187-48.617-10.375-5.82-20.625-11.867-30.758-18.070-18.906 11.547-38.156 22.406-57.727 32.555zM814.797 760c5.258 0 10.422 2.141 14.141 5.867 3.719 3.719 5.859 8.875 5.859 14.133 0 5.266-2.133 10.422-5.859 14.141-3.719 3.727-8.883 5.859-14.141 5.859s-10.422-2.133-14.133-5.859c-3.727-3.719-5.867-8.875-5.867-14.141 0-5.258 2.141-10.414 5.867-14.133 3.711-3.719 8.875-5.867 14.133-5.867zM641.195 229.461c-3.711-3.719-5.859-8.875-5.859-14.133 0-5.281 2.141-10.422 5.859-14.141 3.727-3.727 8.883-5.859 14.141-5.859 5.266 0 10.422 2.133 14.141 5.859 3.719 3.719 5.859 8.859 5.859 14.141 0 5.258-2.141 10.414-5.859 14.133-3.719 3.727-8.875 5.867-14.141 5.867-5.258 0-10.414-2.141-14.141-5.867z" />
<glyph unicode="&#xe912;" glyph-name="farming-and-gardening" d="M819.245 191.93h51.184c18.847 0 34.133 15.278 34.133 34.125v51.192c0 18.847-15.286 34.125-34.133 34.125h-51.184c-18.847 0-34.125-15.278-34.125-34.125v-51.192c0-18.847 15.278-34.125 34.125-34.125zM819.245 277.248h51.184v-51.192h-51.184zM460.924 311.373h-51.192c-18.847 0-34.125-15.278-34.125-34.125v-51.192c0-18.847 15.278-34.125 34.125-34.125h51.192c18.847 0 34.125 15.278 34.125 34.125v51.192c0 18.847-15.278 34.125-34.125 34.125zM409.732 226.056v51.192h51.192v-51.192zM239.105 311.373h-51.192c-18.847 0-34.125-15.278-34.125-34.125v-51.192c0-18.847 15.278-34.125 34.125-34.125h51.192c18.847 0 34.125 15.278 34.125 34.125v51.192c0 18.847-15.278 34.125-34.125 34.125zM187.913 226.056v51.192h51.192v-51.192zM128.191 703.82c40.194 0.031 78.022 19.004 102.087 51.192h94.136c28.275 0 51.192 22.917 51.192 51.192 0 9.42 7.639 17.059 17.067 17.059h136.502c28.267 0 51.184 22.917 51.184 51.192 0 28.267-22.917 51.184-51.184 51.184h-255.945c-15.942-0.047-30.939-7.553-40.523-20.285-34.899 49.677-99.885 68.001-155.591 43.866-55.699-24.128-86.786-84.068-74.421-143.5 12.372-59.432 64.791-101.994 125.496-101.9zM273.23 891.514h255.945c9.42 0 17.059-7.639 17.059-17.059 0-9.428-7.639-17.067-17.059-17.067h-136.502c-28.275 0-51.192-22.917-51.192-51.184 0-9.428-7.639-17.067-17.067-17.067h-187.686c-9.428 0-17.067 7.639-17.067 17.067 0 9.42 7.639 17.059 17.067 17.059h68.251c18.801 0.070 36.039 10.466 44.873 27.064 0.219 0.359 0.375 0.719 0.578 1.070 3.718 7.123 5.686 15.028 5.733 23.058 0 9.42 7.639 17.059 17.067 17.059zM128.191 925.639c40.069 0.031 75.663-25.541 88.426-63.525-3.132-3.007-7.295-4.702-11.638-4.726h-68.251c-28.275 0-51.192-22.917-51.192-51.184 0-28.275 22.917-51.192 51.192-51.192h45.318c-33.126-23.276-77.452-22.69-109.945 1.468-32.493 24.151-45.834 66.423-33.094 104.852 12.747 38.429 48.7 64.353 89.184 64.306zM1006.939-29.889h-34.125v392.454h15.356c10.045-0.008 19.16 5.866 23.307 15.012 4.155 9.154 2.57 19.879-4.046 27.439l-216.344 247.204c-5.397 6.061-12.169 10.74-19.738 13.653l-0.703 0.242c-5.757 2.273-11.888 3.491-18.082 3.577h-86.887v68.251c0 18.847-15.278 34.125-34.125 34.125h-68.251c-18.847 0-34.125-15.278-34.125-34.125v-68.251h-224.741c-13.583 0.047-26.627-5.358-36.203-14.997l-248.454-248.439c-7.327-7.319-9.521-18.332-5.553-27.9 3.96-9.568 13.302-15.801 23.659-15.793h13.528v-294.577c-32.048-22.284-51.169-58.839-51.192-97.877 0.125-4.765 0.547-9.529 1.281-14.247-0.242-0.922-0.414-1.859-0.508-2.812 0.156-5.46 2.984-10.49 7.553-13.466 0.547-0.406 1.117-0.773 1.711-1.109 1.086-0.601 2.226-1.094 3.413-1.468 1.109-0.344 2.25-0.57 3.413-0.664 0.562-0.148 1.125-0.266 1.703-0.359h988.154c9.42 0 17.059 7.639 17.059 17.067 0 9.42-7.639 17.059-17.059 17.059zM955.747 396.691h-389.033l29.861 34.125h342.114c0.234 0 0.422 0.117 0.664 0.133l30.048-34.258zM160.848 499.067h450.231l-29.861-34.125h-454.496zM231.255 569.466c2.398-1.351 5.093-2.093 7.85-2.148h431.688l-29.853-34.125h-445.958zM768.053 626.711l22.183-25.268h-44.365zM802.178 567.318c4.882 0.039 9.514 2.195 12.677 5.905l35.102-40.030h-163.801l29.853 34.125zM656.358 499.067h214.071c2.656 0.047 5.257 0.726 7.6 1.976l31.649-36.102h-283.244zM563.3 737.945h68.251v-68.251h-68.251zM292.359 630.57c3.202 3.202 7.545 5.007 12.076 4.999h426.080l-29.861-34.125h-437.421zM92.597 430.816h458.76l-29.861-34.125h-463.025zM34.344-29.889c0.016 34.649 20.98 65.853 53.059 78.952 32.079 13.107 68.891 5.507 93.16-19.23 15.747-15.872 24.534-37.359 24.417-59.721zM219.632 35.534c20.652 6.147 42.999 2.179 60.276-10.701 17.27-12.888 27.447-33.173 27.447-54.723h-68.251c0.070 23.245-6.694 45.998-19.472 65.423zM239.105 72.495c-15.2-0.031-30.204-3.429-43.92-9.967-30.611 25.127-71.735 33.344-109.648 21.909v278.127h477.764v-392.454h-221.819c-0.055 56.519-45.857 102.322-102.376 102.384zM597.426 362.565h341.262v-392.454h-102.384v136.51c0 37.695-30.556 68.251-68.251 68.251h-34.125c-37.695 0-68.251-30.556-68.251-68.251v-136.51h-68.251zM699.802-29.889v136.51c0 18.847 15.278 34.125 34.125 34.125h34.125c18.847 0 34.125-15.278 34.125-34.125v-136.51z" />
<glyph unicode="&#xe913;" glyph-name="drill" d="M41.514 821.622c-22.926 0-41.514-18.588-41.514-41.514v-664.216c0-22.926 18.588-41.514 41.514-41.514h193.73c22.924 0 41.514 18.586 41.514 41.514v124.54h124.54c22.924 0 41.514 18.588 41.514 41.514v539.676h-401.298zM359.784 323.46h-83.028v83.026h83.028v-83.026zM982.486 655.568h-152.216v41.514c0 22.926-18.59 41.514-41.514 41.514h-124.54v41.512c0 22.926-18.59 41.514-41.514 41.514h-96.864v-415.136h96.864c22.924 0 41.514 18.588 41.514 41.514v41.514h124.54c22.924 0 41.514 18.586 41.514 41.514v41.512h152.216c22.924 0 41.514 18.588 41.514 41.514s-18.586 41.514-41.514 41.514z" />
<glyph unicode="&#xe914;" glyph-name="gear" d="M1020.776 504.846c-1.616 14.392-18.405 25.22-32.921 25.22-46.915 0-88.551 27.536-106.012 70.155-17.824 43.642-6.324 94.529 28.63 126.596 11.009 10.066 12.351 26.92 3.122 38.62-24.020 30.494-51.308 58.043-81.111 81.917-11.66 9.353-28.794 8.051-38.913-3.149-30.516-33.798-85.336-46.357-127.698-28.683-44.067 18.542-71.882 63.211-69.15 111.158 0.899 15.070-10.119 28.165-25.136 29.914-38.248 4.428-76.833 4.557-115.192 0.301-14.826-1.639-25.835-14.423-25.344-29.303 1.661-47.477-26.469-91.359-70.111-109.236-41.853-17.098-96.292-4.632-126.746 28.869-10.066 11.036-26.898 12.391-38.638 3.237-30.68-24.077-58.584-51.644-82.825-81.891-9.446-11.757-8.051-28.798 3.051-38.899 35.644-32.279 47.136-83.604 28.63-127.756-17.669-42.092-61.374-69.208-111.402-69.208-16.235 0.523-27.788-10.385-29.582-25.149-4.499-38.452-4.548-77.653-0.217-116.419 1.616-14.454 18.901-25.189 33.576-25.189 44.594 1.134 87.382-26.455 105.357-70.151 17.886-43.642 6.373-94.507-28.639-126.618-10.952-10.066-12.351-26.881-3.104-38.567 23.776-30.304 51.091-57.871 80.983-81.948 11.735-9.45 28.803-8.126 38.975 3.087 30.636 33.878 85.447 46.414 127.636 28.705 44.196-18.493 71.997-63.158 69.283-111.118-0.89-15.070 10.154-28.205 25.118-29.914 19.574-2.29 39.249-3.423 58.987-3.423 18.732 0 37.469 1.023 56.206 3.109 14.844 1.639 25.835 14.437 25.335 29.321-1.714 47.455 26.478 91.341 70.067 109.183 42.132 17.209 96.327 4.614 126.799-28.838 10.119-11.014 26.85-12.351 38.638-3.233 30.627 24.015 58.477 51.569 82.825 81.895 9.455 11.735 8.113 28.798-3.051 38.917-35.636 32.257-47.189 83.604-28.683 127.712 17.395 41.525 59.474 69.407 104.732 69.407l6.333-0.168c14.694-1.191 28.196 10.123 29.972 25.114 4.521 38.488 4.57 77.644 0.221 116.424zM511.998 152.829c-163.024 0-295.173 132.149-295.173 295.168s132.153 295.168 295.173 295.168 295.173-132.149 295.173-295.168c0-55.333-15.256-107.088-41.751-151.346l-129.248 129.253c9.357 22.062 14.299 45.98 14.295 70.665 0 48.336-18.825 93.777-53.008 127.951-34.174 34.174-79.614 52.995-127.942 52.995-16.128 0-32.181-2.143-47.712-6.373-6.802-1.856-12.364-7.462-14.175-14.277-1.851-6.97 0.235-14.113 5.682-19.565 0 0 63.809-64.301 85.159-85.646 2.236-2.236 2.232-7.573 1.918-9.495l-0.199-1.404c-2.152-23.471-6.302-51.644-9.725-62.472-0.461-0.456-0.895-0.841-1.364-1.311-0.492-0.492-0.943-0.965-1.417-1.453-10.969-3.521-39.577-7.719-63.42-9.853l0.004 0.128-1.072-0.27c-0.19-0.022-0.545-0.049-1.014-0.049-2.577 0-6.368 0.722-9.813 4.163-22.222 22.222-83.529 83.091-83.529 83.091-5.5 5.482-11.142 6.634-14.902 6.634-8.764 0-16.611-6.333-19.082-15.415-16.877-62.454 1.014-129.634 46.702-175.326 34.183-34.179 79.628-52.999 127.964-52.999 24.684 0 48.602 4.938 70.66 14.295l130.652-130.652c-45.87-29.352-100.339-46.437-158.835-46.437z" />
<glyph unicode="&#xe915;" glyph-name="cctv" d="M805.009 392.827l-115.918-177.803-180.302 117.25-65.767-112.455-282.347-24.647v-196.154h-160.675v507.393h160.675v-183.905l205.765 17.945 36.257 61.111-246.728 160.607 217.942 334.808 650.089-423.174-218.991-80.976zM735.188 185.194l84.244-54.845 114.163 175.364-84.244 54.845-114.163-175.364z" />
<glyph unicode="&#xe916;" glyph-name="chat-1" d="M1024 342.857v603.429h-841.143v-128h676.571c10.098 0 18.286-8.187 18.286-18.286v-457.143zM407.643 172.929c3.429 3.429 8.080 5.357 12.929 5.357h420.571v603.429h-841.143v-603.429h164.571c10.098 0 18.286-8.187 18.286-18.286v-211.857z" />
<glyph unicode="&#xe917;" glyph-name="roof" d="M0 443.944v-411.634h421.258v314.3h181.482v-314.3h421.258v411.634h-1023.998zM323.428 153.966h-181.48v192.642h181.482v-192.642zM882.050 153.966h-181.482v192.642h181.482v-192.642zM701.504 863.69h-379.010l-322.494-305.266v-53.644h1024v53.644z" />
<glyph unicode="&#xe918;" glyph-name="triangular" d="M606.090 18.409l417.91 692.504-94.092 166.679h-835.816l-94.092-166.679 417.91-692.504h188.18zM735.232 657.795l-223.23-369.907-223.23 369.907h446.459z" />
<glyph unicode="&#xe919;" glyph-name="null-1" d="M153.501 431.226h34.141c0 28.284 22.928 51.212 51.212 51.212v34.141c-47.115-0.055-85.296-38.236-85.353-85.353zM255.925 380.014h-34.141c0.055-47.115 38.238-85.298 85.353-85.353v34.141c-28.282 0-51.212 22.928-51.212 51.212zM221.784 141.025h34.141c0 28.284 22.928 51.212 51.212 51.212v34.141c-47.115-0.055-85.296-38.236-85.353-85.353zM1007.828 474.18c-18.317 31.553-50.043 53.009-86.147 58.258v18.283c-0.107 78.514-59.321 144.349-137.385 152.748-9.071 150.375-138.328 264.924-288.703 255.851-137.713-8.309-247.541-118.135-255.851-255.851-78.090-8.367-137.342-74.21-137.453-152.748v-18.283c-65.306-9.51-110.537-70.16-101.028-135.466 5.256-36.085 26.698-67.796 58.232-86.111-16.465-18.592-25.533-42.578-25.486-67.412 0.068-56.643 46.042-102.505 102.684-102.437 0.482 0 0.964 0.004 1.447 0.013 31.218-67.403 96.264-112.818 170.297-118.897 8.143-49.53 50.93-85.897 101.127-85.951 47.115 0.055 85.298 38.238 85.353 85.353v51.212h34.141v-51.212c0.055-47.115 38.238-85.298 85.353-85.353 50.196 0.064 92.975 36.435 101.109 85.968 74.035 6.071 139.087 51.479 170.314 118.88h1.707c56.54 0.066 102.358 45.884 102.424 102.424 0.043 24.827-9.026 48.807-25.486 67.395 57.076 33.134 76.485 106.261 43.351 163.336zM274.914 717.966c15.374 119.185 116.9 208.392 237.073 208.309 131.924 0.092 238.944-106.779 239.036-238.703 0.083-120.173-89.124-221.699-208.309-237.073l115.739 202.646h41.311v34.141h-136.565c-6.47 0.002-12.387-3.653-15.278-9.44l-7.75-15.517-11.113 112.018c-0.928 9.382-9.284 16.236-18.667 15.308-5.84-0.578-10.976-4.116-13.597-9.368l-46.569-93.001h-126.016v-34.141h41.311l115.739-202.646c-130.84 16.879-223.224 136.627-206.346 267.467zM375.42 209.308v34.141h273.13v-34.141h-273.13zM626.888 175.166c-6.096-10.558-17.359-17.064-29.549-17.071h-170.706c-12.191 0.006-23.453 6.512-29.549 17.071h229.805zM392.491 277.59v17.071h238.989v-17.071h-238.989zM375.42 328.802v34.141h273.13v-34.141h-273.13zM631.48 442.066v-44.981h-238.989v44.981c75.316-37.22 163.673-37.22 238.989 0zM404.833 653.144h55.941c6.47-0.002 12.387 3.653 15.278 9.44l24.821 49.659 11.113-112.018c0.928-9.382 9.284-16.236 18.667-15.308 5.84 0.578 10.976 4.116 13.597 9.368l29.498 58.86h45.391l-107.152-187.504-107.152 187.504zM916.15 311.032c1.157-4.073 3.783-7.571 7.375-9.816 32.321-18.648 43.406-59.967 24.757-92.288-14.29-24.767-42.623-37.858-70.745-32.686-7.931 1.242-15.645-3.256-18.47-10.772-25.446-65.895-88.667-109.468-159.303-109.798-9.427 0-17.071-7.643-17.071-17.071 0-37.711-30.571-68.283-68.283-68.283-28.284 0-51.212 22.928-51.212 51.212v51.212h51.212v34.141h-187.777v-34.141h34.141v-51.212c0-28.284-22.928-51.212-51.212-51.212-37.711 0-68.283 30.571-68.283 68.283 0 9.427-7.643 17.071-17.071 17.071-70.636 0.331-133.857 43.904-159.303 109.798-3.179 7.498-11.030 11.894-19.085 10.686-3.1-0.565-6.239-0.896-9.389-0.99-37.617-0.087-68.182 30.339-68.268 67.954-0.055 23.66 12.174 45.655 32.3 58.096 7.995 4.997 10.426 15.528 5.428 23.523-2.245 3.591-5.742 6.218-9.816 7.375-45.31 13.004-71.5 60.274-58.499 105.586 10.475 36.503 43.808 61.693 81.783 61.809 9.427 0 17.071 7.643 17.071 17.071v34.141c0.105 59.69 44.209 110.161 103.346 118.265 5.591-83.653 49.309-160.099 118.573-207.34v-64.561c-9.427 0-17.071-7.643-17.071-17.071v-68.283c0-9.427 7.643-17.071 17.071-17.071v-17.071c-9.427 0-17.071-7.643-17.071-17.071v-68.283c0-9.427 7.643-17.071 17.071-17.071h2.424c7.761-30.055 34.818-51.095 65.859-51.212h170.706c31.041 0.117 58.098 21.157 65.859 51.212h2.424c9.427 0 17.071 7.643 17.071 17.071v68.283c0 9.427-7.643 17.071-17.071 17.071v17.071c9.427 0 17.071 7.643 17.071 17.071v68.283c0 9.427-7.643 17.071-17.071 17.071v64.561c69.268 47.245 112.986 123.698 118.573 207.357 59.143-8.104 103.252-58.586 103.346-118.283v-34.141c0-9.427 7.643-17.071 17.071-17.071 47.138-0.134 85.244-38.456 85.11-85.594-0.109-37.982-25.301-71.323-61.809-81.8-9.069-2.573-14.335-12.013-11.762-21.082zM785.115 516.579v-34.141c28.284 0 51.212-22.928 51.212-51.212h34.141c-0.055 47.117-38.236 85.298-85.353 85.353zM768.045 380.014c0-28.284-22.928-51.212-51.212-51.212v-34.141c47.115 0.055 85.298 38.238 85.353 85.353h-34.141zM716.833 226.378v-34.141c28.284 0 51.212-22.928 51.212-51.212h34.141c-0.055 47.117-38.236 85.298-85.353 85.353zM192.652 914.201l24.141 24.141 51.216-51.216-24.141-24.141-51.216 51.216zM153.501 823.851h68.283v-34.141h-68.283v34.141zM802.186 823.851h68.283v-34.141h-68.283v34.141zM755.983 887.141l51.216 51.216 24.141-24.141-51.216-51.216-24.141 24.141z" />
<glyph unicode="&#xe91a;" glyph-name="ecology" d="M981.131 602.578c-26.875 5.586-59.766-7.969-67.828-44.094l-27.922-125.101c-6.656 2.133-13.727 3-20.93 2.484-14.742-1.062-28.164-7.773-37.797-18.898l-36.461-42.125c-26.43-30.531-26.43-30.531-54.031-37.875-6.437-1.711-14.453-3.844-24.187-6.695-112.57-32.992-156.742-136.453-161.508-221.406-15.203-7.312-25.719-22.867-25.719-40.828v-34.711c0-24.961 20.305-45.273 45.273-45.273h183.406c24.961 0 45.273 20.305 45.273 45.273v34.711c0 8.547-2.391 16.555-6.523 23.383l82.219 44.156c0.078 0.047 0.164 0.094 0.25 0.141 71.781 39.891 84.094 57.836 101.367 147.687 2.086 10.844-5.016 21.328-15.859 23.414-10.859 2.086-21.336-5.016-23.414-15.867-15.609-81.156-22.609-87.523-81.398-120.203l-106.945-57.437h-157.523c5.828 70.086 42.726 152.312 132.351 178.578 9.258 2.711 16.672 4.687 23.227 6.43 35.031 9.32 41.414 12.727 73.976 50.344l36.469 42.125c2.641 3.047 6.344 4.891 10.43 5.18s8.016-0.992 11.062-3.633c7.844-6.789 3.703-17.961 0.023-23.492-19-28.516-74.281-108.859-83.594-122.508-6.227-9.125-3.875-21.562 5.25-27.789s21.562-3.875 27.789 5.25c9.281 13.602 64.672 94.109 83.836 122.875 11.625 17.445 13.937 37.797 7.547 54.805l33.102 148.289c3.633 16.32 17.836 14.234 20.641 13.648 4.703-0.977 15.328-4.82 12.516-19.406l-22.664-117.609c-2.086-10.844 5.008-21.336 15.852-23.422 10.859-2.078 21.336 5.008 23.422 15.852l22.664 117.609c6.945 36.023-16.703 60.539-43.641 66.141zM758.702 33.329c0-2.859-2.414-5.273-5.281-5.273h-183.406c-2.859 0-5.273 2.414-5.273 5.273v34.711c0 2.859 2.414 5.273 5.273 5.273h183.437c2.852-0.016 5.25-2.422 5.25-5.273zM975.373 385.836c-10.859 2.086-21.328-5.023-23.414-15.875l-0.102-0.523c-2.078-10.852 5.023-21.336 15.875-23.414 1.273-0.242 2.539-0.359 3.789-0.359 9.398 0 17.781 6.656 19.625 16.227l0.102 0.531c2.070 10.852-5.031 21.336-15.875 23.414zM477.53 108.868c-4.766 84.953-48.937 188.422-161.508 221.406-9.734 2.852-17.75 4.984-24.187 6.703-27.594 7.336-27.594 7.336-54.023 37.867l-36.469 42.125c-14.93 17.242-38.273 22.977-58.726 16.406l-27.922 125.109c-8.062 36.117-40.953 49.687-67.828 44.094-26.937-5.602-50.586-30.117-43.641-66.141 2.086-10.844 12.57-17.937 23.422-15.852 10.844 2.094 17.945 12.578 15.852 23.422-2.812 14.586 7.812 18.437 12.516 19.414 2.805 0.578 17 2.664 20.641-13.648l33.102-148.297c-6.391-17.008-4.078-37.367 7.547-54.805 19.164-28.773 74.555-109.273 83.836-122.875 6.227-9.125 18.664-11.469 27.789-5.25 9.125 6.227 11.477 18.672 5.25 27.789-9.312 13.648-64.594 93.992-83.594 122.508-3.68 5.531-7.82 16.703 0.031 23.492 3.039 2.641 6.992 3.922 11.055 3.633 4.086-0.289 7.797-2.133 10.43-5.18l36.469-42.125c32.562-37.617 38.945-41.023 73.976-50.344 6.547-1.742 13.969-3.719 23.227-6.43 89.625-26.266 126.523-108.492 132.351-178.578h-157.523l-106.945 57.437c-58.789 32.68-65.789 39.047-81.39 120.219l-22.664 117.609c-2.094 10.844-12.578 17.937-23.422 15.852-10.852-2.094-17.945-12.578-15.859-23.422l22.664-117.601c17.273-89.851 29.586-107.797 101.375-147.687 0.078-0.047 0.164-0.094 0.25-0.141l82.219-44.156c-4.141-6.828-6.523-14.828-6.523-23.383v-34.711c0-24.961 20.305-45.273 45.273-45.273h183.406c24.961 0 45.273 20.305 45.273 45.273v34.711c0 17.969-10.523 33.516-25.727 40.828zM463.257 33.329c0-2.859-2.414-5.273-5.273-5.273h-183.406c-2.867 0-5.281 2.414-5.281 5.273v34.711c0 2.852 2.398 5.258 5.25 5.273h183.429c2.859 0 5.281-2.414 5.281-5.273zM41.859 441.57c10.844 2.086 17.953 12.562 15.867 23.414l-0.102 0.531c-2.078 10.836-12.539 17.945-23.406 15.867-10.844-2.078-17.953-12.562-15.867-23.406l0.102-0.531c1.836-9.578 10.211-16.234 19.617-16.234 1.242 0 2.516 0.117 3.789 0.359zM808.506 550.922c0.148 0.625 0.273 1.25 0.359 1.875 3.344 17.906 5.109 36.359 5.109 55.219 0 71.086-24.867 136.469-66.344 187.929-0.875 1.375-1.898 2.641-3.078 3.766-55.070 66.125-137.976 108.289-230.562 108.289-52.445 0-104.195-13.836-149.648-40-9.57-5.508-12.867-17.734-7.359-27.305s17.734-12.867 27.312-7.359c39.391 22.68 84.242 34.664 129.695 34.664 67.976 0 129.937-26.234 176.304-69.094-29.125-10.437-56.656-32.484-71.476-59.75-15.187-27.93-13.883-56.922 3.562-79.562 8.773-11.375 6.547-20.289-5.125-43.078-19.602-38.297-17.539-78.578 5.133-100.242 9.594-9.172 21.625-13.789 34.766-13.789 11.367 0 23.555 3.445 35.727 10.391 5.016 2.859 10.031 6.133 14.891 9.305 18.594 12.148 35.125 22.93 57.617 19.5-29.398-111.328-130.961-193.648-251.398-193.648-32.328 0-63.281 5.953-91.859 16.781-26.797 45.484 3.672 75.703 46.187 110.156 2.766 2.242 5.422 4.398 7.914 6.461 44.992 37.273 47.93 91.953 31.617 126.976-13.719 29.469-40.797 45.203-68.969 40.078-28.508-5.18-43.82-20.086-57.336-33.234-11.875-11.555-21.258-20.687-39.914-24.945-10.766-2.461-16.656 1.945-30.719 15.172-12.406 11.664-29.586 27.805-55.687 27.469 3.562 36.914 15 72.812 33.617 105.062 5.523 9.562 2.25 21.797-7.32 27.32-9.562 5.523-21.797 2.242-27.312-7.32-26.25-45.461-40.141-97.226-40.187-149.711 0-0.094-0.008-0.195-0.008-0.297 0.008-124.859 76.703-232.125 185.445-277.218 1.008-0.531 2.070-0.937 3.148-1.289 34.453-13.836 72.047-21.461 111.39-21.461 145.89 0.008 267.765 104.695 294.507 242.89zM685.905 555.672c-4.562-2.977-8.875-5.789-12.836-8.055-5.984-3.414-16.937-8.266-23.039-2.43-6.789 6.484-10.391 27.25 2.844 53.101 10.687 20.883 26.844 52.453 1.195 85.726-7.664 9.945-7.703 22.062-0.109 36.031 12.797 23.531 42.406 42.961 66.961 45.18 33.273-43.687 53.062-98.172 53.062-157.211 0-9.125-0.477-18.133-1.398-27.016-38.312 6.219-66.75-12.32-86.68-25.328zM254.468 592.883c10.219 0.586 17.273-5.469 29.055-16.547 14.562-13.687 34.492-32.437 67.016-25.023 29.602 6.758 45.851 22.57 58.906 35.273 11.664 11.352 20.086 19.547 36.594 22.547 14.437 2.625 22.687-11.445 25.562-17.617 10.031-21.539 7.773-55.547-20.883-79.289-2.383-1.977-4.93-4.039-7.578-6.187-18.609-15.078-44.094-35.727-58.844-62.586-9.586-17.445-13.609-35.227-12.109-53.226-67.125 43.859-112.828 117.867-117.719 202.656zM307.062 776.617c5.406 0 10.805 2.187 14.742 6.484l0.391 0.422c7.461 8.141 6.914 20.789-1.227 28.258-8.141 7.461-20.797 6.914-28.258-1.227l-0.391-0.422c-7.461-8.141-6.906-20.789 1.234-28.258 3.836-3.523 8.68-5.258 13.508-5.258z" />
<glyph unicode="&#xe91b;" glyph-name="solar-panel" d="M1023.534-39.708l-108 491.745c-2.016 9.174-10.142 15.708-19.536 15.708h-47.266c-8.838 179.656-157.768 323.099-339.577 323.099s-330.737-143.444-339.577-323.099h-41.578c-9.392 0-17.52-6.536-19.536-15.708l-108-491.745c-1.298-5.918 0.154-12.104 3.95-16.824 3.8-4.722 9.528-7.466 15.586-7.466h983.998c6.058 0 11.79 2.746 15.586 7.466 3.798 4.722 5.248 10.906 3.95 16.824zM509.155 750.844c159.748 0 290.717-125.512 299.513-283.097h-599.027c8.796 157.586 139.77 283.097 299.513 283.097zM637.421 264.001l9.336-124h-269.513l9.336 124h250.842zM389.593 304.001l9.316 123.746h226.184l9.318-123.746h-244.818zM324.785-23.998h-279.915l27.232 124h262.017l-9.334-124zM337.131 140.002h-256.241l27.234 124h238.346l-9.338-124zM349.479 304.001h-232.574l27.178 123.746h214.71l-9.314-123.746zM364.895-23.998l9.336 124h275.535l9.336-124h-294.207zM665.207 427.745h214.71l27.176-123.744h-232.572l-9.314 123.744zM677.535 264.001h238.344l27.234-124h-256.243l-9.334 124zM699.217-23.998l-9.336 124h262.017l27.234-124h-279.915zM511.999 960c-11.044 0-20-8.956-20-20v-101.312c0-11.046 8.956-20 20-20s20 8.956 20 20v101.312c0 11.042-8.954 20-20 20zM326.639 794.38l-50.658 87.738c-5.524 9.562-17.752 12.842-27.32 7.32-9.566-5.524-12.844-17.756-7.32-27.32l50.658-87.738c3.706-6.416 10.426-10.004 17.34-10.004 3.392 0 6.832 0.866 9.98 2.684 9.566 5.524 12.846 17.756 7.32 27.32zM968.104 696.663c-5.522 9.564-17.748 12.842-27.32 7.32l-87.738-50.654c-9.566-5.522-12.844-17.754-7.32-27.32 3.706-6.416 10.426-10.004 17.34-10.004 3.392 0 6.83 0.866 9.98 2.684l87.738 50.654c9.566 5.522 12.844 17.752 7.32 27.32zM170.952 653.329l-87.742 50.654c-9.568 5.524-21.8 2.244-27.32-7.32-5.524-9.566-2.246-21.8 7.32-27.32l87.742-50.654c3.15-1.818 6.588-2.684 9.98-2.684 6.912 0 13.636 3.588 17.34 10.004 5.524 9.566 2.246 21.798-7.32 27.32zM775.336 889.438c-9.568 5.524-21.796 2.246-27.32-7.32l-50.658-87.738c-5.524-9.564-2.246-21.796 7.32-27.32 3.15-1.818 6.588-2.684 9.98-2.684 6.912 0 13.634 3.588 17.34 10.004l50.658 87.738c5.524 9.564 2.248 21.794-7.32 27.32zM750.491 552.543l-0.052 0.128c-4.184 10.224-15.838 15.054-26.058 10.876-10.226-4.184-15.096-15.926-10.914-26.148 3.17-7.746 10.638-12.434 18.52-12.434 2.522 0 5.086 0.48 7.564 1.494 10.224 4.182 15.122 15.862 10.94 26.084zM709.463 619.459c-49.91 59.234-122.92 93.208-200.308 93.208-11.044 0-20-8.956-20-20s8.958-20.002 20.002-20.002c65.566 0 127.426-28.788 169.718-78.98 3.958-4.696 9.612-7.114 15.304-7.114 4.55 0 9.126 1.544 12.876 4.706 8.448 7.12 9.526 19.734 2.408 28.182z" />
<glyph unicode="&#xe91c;" glyph-name="money" d="M682.139 590.233c-3.718 3.72-8.878 5.86-14.138 5.86s-10.42-2.138-14.14-5.86c-3.72-3.722-5.86-8.88-5.86-14.14s2.138-10.42 5.86-14.138c3.72-3.72 8.88-5.862 14.14-5.862s10.42 2.142 14.138 5.862c3.72 3.718 5.862 8.878 5.862 14.138s-2.14 10.42-5.862 14.14zM620.323 297.629c-28.664 0-51.984 20.334-51.984 45.328s23.32 45.33 51.984 45.33c28.664 0 51.982-20.336 51.982-45.33 0-11.044 8.956-20 20-20s20 8.956 20 20c0 40.678-30.852 74.778-71.982 83.274v2.006c0 11.044-8.956 20-20 20s-20-8.956-20-20v-2.006c-41.132-8.496-71.984-42.596-71.984-83.274 0-47.050 41.264-85.328 91.984-85.328 28.664 0 51.982-20.336 51.982-45.33s-23.318-45.33-51.982-45.33c-28.664 0-51.984 20.334-51.984 45.328 0 11.044-8.956 20-20 20s-20-8.956-20-20c0-40.678 30.852-74.776 71.984-83.272v-5.070c0-11.044 8.956-20 20-20s20 8.956 20 20v5.072c41.13 8.496 71.982 42.594 71.982 83.272 0 47.050-41.264 85.33-91.982 85.33zM890.792 575.655l-118.332 147.942 59.28 116.366c13.008 25.534 7.974 54.772-12.822 74.484-20.798 19.714-50.264 23.174-75.068 8.82-8.26-4.784-18.784-3.95-26.162 2.050-56.52 46.082-138.614 46.144-195.348 0.020-7.406-6.022-17.928-6.854-26.188-2.068-24.802 14.354-54.268 10.894-75.066-8.822-20.796-19.712-25.83-48.952-12.822-74.484l59.478-116.752-68.922-86.168c-6.898-8.626-5.5-21.21 3.126-28.112 8.628-6.9 21.21-5.498 28.112 3.126l71.052 88.832h146.892v-56.126c0-11.044 8.956-20 20-20s20 8.956 20 20v56.126h30.5v-199.792c0-11.044 8.956-20 20-20s20 8.956 20 20v175.914l101.050-126.338c80.252-100.336 124.45-226.352 124.45-354.833 0-121.168-98.578-219.746-219.746-219.746h-288.001c-72.416 0-138.46 34.55-179.654 93.166 73.48 38.784 121.634 78.142 149.734 121.996 30.694 47.904 34.19 95.338 35.394 147.932 0.004 0.154 0.006 0.306 0.006 0.458v166.182c0 7.81-4.546 14.906-11.642 18.17l-220.868 101.6c-5.304 2.442-11.41 2.442-16.714 0l-220.868-101.6c-7.096-3.264-11.642-10.36-11.642-18.17v-166.182c0-0.152 0.002-0.304 0.006-0.458 1.206-52.594 4.702-100.028 35.394-147.932 33.742-52.66 96.368-98.838 197.086-145.322 2.658-1.226 5.52-1.84 8.38-1.84s5.722 0.614 8.38 1.84c3.814 1.76 7.554 3.52 11.258 5.28 22.132-32.94 51.658-60.616 86.068-80.478 39.26-22.662 84.104-34.64 129.68-34.64h288.001c143.224 0 259.747 116.522 259.747 259.747 0.002 137.524-47.306 272.415-133.208 379.813zM736.381 740.89h-232.756l-59.72 117.23c-7.282 14.294 1.754 24.506 4.698 27.296 2.944 2.792 13.638 11.262 27.508 3.234 22.54-13.046 51.254-10.778 71.612 5.774 41.948 34.096 102.794 34.052 144.71-0.126 20.208-16.424 48.922-18.696 71.458-5.65 13.878 8.040 24.566-0.44 27.51-3.232 2.944-2.79 11.98-13.002 4.7-27.296l-59.72-117.23zM240.868 86.164c-197.006 92.942-198.894 167.546-200.868 253.708v153.14l200.868 92.4 200.868-92.4v-153.14c-1.976-86.162-3.862-160.766-200.868-253.708zM368.567 402.369c-7.81 7.808-20.47 7.808-28.282 0l-112.078-112.078-47.446 47.446c-7.812 7.808-20.472 7.808-28.286 0-7.81-7.81-7.81-20.474 0-28.286l61.588-61.588c3.906-3.904 9.024-5.858 14.142-5.858s10.236 1.954 14.142 5.858l126.22 126.22c7.81 7.81 7.81 20.474 0 28.286z" />
<glyph unicode="&#xe91d;" glyph-name="plus" d="M1024 472.381h-487.619v487.619h-48.762v-487.619h-487.619v-48.762h487.619v-487.619h48.762v487.619h487.619z" />
<glyph unicode="&#xe91e;" glyph-name="user" d="M512.002 873.453c-282.774 0-512.002-229.227-512.002-512.002 0-123.219 43.551-236.271 116.073-324.616 11.189 89.587 100.667 165.357 226.138 201.24 45.839-42.71 105.049-68.624 169.787-68.624 63.217 0 121.266 24.609 166.639 65.527 126.555-39.019 214.111-119.215 216.99-212.431 79.819 90.297 128.373 208.898 128.373 338.904 0 282.774-229.227 512.002-511.998 512.002zM512.002 230.084c-32.685 0-63.483 8.98-90.83 24.533-65.902 37.5-111.278 114.239-111.278 202.837 0 125.372 90.662 227.374 202.107 227.374 111.455 0 202.107-102.002 202.107-227.374 0-89.959-46.795-167.644-114.338-204.494-26.607-14.508-56.298-22.877-87.77-22.877z" />
<glyph unicode="&#xe91f;" glyph-name="point" d="M511.566 960c-213.297 0-385.843-172.545-385.843-385.843 0-110.984 55.492-211.563 110.117-304.339 66.764-115.328 146.533-222.835 239.309-318.212 19.942-20.801 52.899-20.801 73.7 0 81.504 80.637 153.47 171.678 214.164 268.789 65.030 104.923 135.262 226.312 135.262 353.761-0.867 212.43-173.412 385.843-386.71 385.843zM511.566 350.456c-129.192 0-234.107 104.914-234.107 234.107s104.914 234.107 234.107 234.107c129.192 0 234.107-104.047 234.107-234.107s-104.914-234.107-234.107-234.107z" />
<glyph unicode="&#xe920;" glyph-name="quote" d="M0 374.857h219.428l-146.287-292.57h219.428l146.287 292.57v438.857h-438.857zM585.143 813.713v-438.857h219.428l-146.287-292.57h219.428l146.287 292.57v438.857z" />
<glyph unicode="&#xe921;" glyph-name="download" d="M302.957 428.769c-11.764-11.757-11.764-30.831 0-42.588l187.216-187.216c5.874-5.882 13.592-8.824 21.295-8.824s15.42 2.942 21.302 8.824l187.216 187.216c11.717 11.725 11.764 30.729 0.078 42.501-11.686 11.788-30.482 11.898-42.293 0.267l-135.784-133.733v634.667c0 16.635-13.857 30.117-30.485 30.117-16.635 0-30.485-13.482-30.485-30.117v-636.91l-135.637 135.796c-11.764 11.764-30.657 11.764-42.421 0zM647.765 803.168c-15.874 5.083-32.8-3.663-37.867-19.483-5.083-15.843 3.639-32.8 19.483-37.883 159.42-51.129 266.542-198.071 266.542-365.648 0-211.694-172.219-383.922-383.922-383.922-211.694 0-383.922 172.227-383.922 383.922 0 167.577 107.114 314.517 266.542 365.648 15.835 5.083 24.557 22.039 19.483 37.883-5.091 15.835-22.070 24.557-37.883 19.483-184.447-59.16-308.377-229.153-308.377-423.012 0-244.91 199.247-444.157 444.157-444.157s444.157 199.247 444.157 444.157c-0.001 193.859-123.938 363.851-308.393 423.012z" />
<glyph unicode="&#xe922;" glyph-name="call" d="M959.458 869.999h-96.281c-8.375 0-15.172-6.797-15.172-15.172 0-8.383 6.797-15.18 15.172-15.18h96.281c18.852 0 34.187-15.336 34.187-34.187v-231.609c0-18.852-15.336-34.187-34.187-34.187h-354.835c-4.023 0-7.883-1.602-10.734-4.445l-87.398-87.398v76.664c0 8.383-6.789 15.18-15.172 15.18h-28.898c-18.852 0-34.187 15.336-34.187 34.187v231.609c0 18.852 15.336 34.187 34.187 34.187h350.171c8.383 0 15.18 6.797 15.18 15.18 0 8.375-6.797 15.172-15.18 15.172h-350.171c-35.586 0-64.539-28.953-64.539-64.539v-231.609c0-35.586 28.953-64.539 64.539-64.539h13.727v-98.125c0-6.141 3.695-11.672 9.367-14.023 1.875-0.773 3.844-1.156 5.805-1.156 3.945 0 7.828 1.547 10.734 4.445l108.851 108.859h348.554c35.586 0 64.539 28.953 64.539 64.539v231.609c0 35.586-28.953 64.539-64.539 64.539zM548.569 675.351c17.992 12.312 40.391 27.648 40.391 53.867 0 12.437-5.039 23.039-14.562 30.656-8.422 6.742-20.031 10.609-31.851 10.609-21.828 0-45.023-13.422-45.023-38.289 0-10.969 4.617-16.305 14.117-16.305 10.719 0 16.5 5.953 16.5 11.547 0 9.281 5.32 14.609 14.602 14.609 10.93 0 14.805-7.445 14.805-13.812 0-11.789-13.898-21.992-28.617-32.797-16.609-12.187-33.781-24.797-33.781-41.297v-19.219c0-5.961 8.125-9.766 13.719-9.766h70.531c5.094 0 9.562 6.508 9.562 13.93 0 7.203-4.469 13.523-9.562 13.523h-51.656v1.531c0 6.953 9.656 13.555 20.828 21.211zM672.905 625.164c10.789 0 15.703 5.055 15.703 9.758v20.75h8.266c4.93 0 9.766 7.187 9.766 14.516 0 9.977-5.062 14.516-9.766 14.516h-8.266v13.617c0 4.406-4.109 9.562-15.703 9.562s-15.703-5.148-15.703-9.562v-13.617h-16.375l34.883 69.976c0.531 1.227 1.016 2.539 1.016 3.867 0 3.234-2.070 6.336-5.836 8.734-3.070 1.945-6.937 3.203-9.867 3.203-5.766 0-10.414-2.859-13.102-8.062l-45.766-89.734c-1.406-2.578-1.617-4.906-1.617-6.062 0-6.555 4.25-10.953 10.562-10.953h46.101v-20.742c0-4.711 4.914-9.766 15.703-9.766zM791.342 773.507l-69.531-142.828c-0.648-1.297-1.023-2.703-1.023-3.875 0-5.195 4.562-10.758 11.352-10.758 3.984 0 7.742 2.102 9.141 5.094l69.734 142.836c0.68 1.359 0.82 2.859 0.82 3.875 0 6.437-6.172 10.758-11.945 10.758-3.906 0-7.023-1.859-8.547-5.102zM844.467 720.249c8.625 0 15.906 4.469 15.906 9.766v13.023h34.953v-13.547l-48.703-84.344c-0.977-1.766-1.414-3.391-1.414-5.273 0-9.367 10.469-15.898 19.867-15.898 4.469 0 7.398 1.398 8.937 4.297l46.359 88.75c1.492 2.797 6.367 12.445 6.367 18.937v24.766c0 4.258-6.656 9.758-13.727 9.758h-70.328c-6.922 0-13.727-4.836-13.727-9.758v-30.711c0-5.383 6.961-9.766 15.508-9.766zM627.537 343.133c-7.891 7.891-18.391 12.234-29.555 12.234s-21.664-4.344-29.555-12.234l-92.758-92.758c-36.937 19.305-69.070 37.711-104.976 67.992-6.406 5.398-15.977 4.586-21.383-1.82-5.398-6.406-4.586-15.977 1.82-21.383 41.469-34.961 77.562-54.695 120.437-76.859 5.867-3.031 13.023-1.922 17.695 2.75l49.906 49.898 164.523-164.523c-53.14-45.617-128.398-61.5-213.843-44.703-96.094 18.898-197.781 78.062-286.327 166.609s-147.718 190.242-166.617 286.335c-16.797 85.453-0.914 160.711 44.695 213.843l164.546-164.539-49.922-49.914c-4.672-4.672-5.781-11.836-2.742-17.703 30.219-58.43 54.601-101.304 115.679-162.39 5.93-5.922 15.539-5.922 21.461 0 5.93 5.93 5.93 15.539 0 21.461-54.758 54.758-77.703 92.679-105.070 145.031l92.765 92.773c7.898 7.891 12.242 18.391 12.242 29.555s-4.344 21.664-12.242 29.555l-148.765 148.765c-7.891 7.898-18.391 12.25-29.555 12.25s-21.664-4.352-29.555-12.242l-39.992-39.992c-60.859-60.859-83.351-150.468-63.328-252.304 20.047-101.945 82.172-209.179 174.937-301.945 92.758-92.758 199.992-154.882 301.937-174.921 24.266-4.773 47.828-7.133 70.484-7.125 72.414 0 135.461 24.094 181.82 70.453l39.984 39.984c7.898 7.898 12.242 18.391 12.242 29.555s-4.344 21.664-12.242 29.555zM131.906 779.655c2.156 2.156 5.031 3.352 8.094 3.352s5.937-1.187 8.094-3.352l148.773-148.773c2.156-2.156 3.352-5.031 3.352-8.094s-1.195-5.937-3.352-8.094l-29.258-29.258-164.961 164.961zM754.834 156.727l-29.266-29.258-164.937 164.945 29.258 29.258c2.156 2.164 5.039 3.352 8.094 3.352s5.93-1.187 8.094-3.352l148.757-148.75c4.461-4.469 4.461-11.734 0-16.195z" />
<glyph unicode="&#xe923;" glyph-name="null-2" d="M434.5 217.16c-3.72 3.74-8.88 5.86-14.16 5.86-5.26 0-10.4-2.12-14.14-5.86-3.72-3.72-5.84-8.86-5.84-14.14 0-5.26 2.12-10.42 5.84-14.138 3.74-3.72 8.88-5.862 14.14-5.862 5.28 0 10.42 2.14 14.16 5.862 3.72 3.718 5.86 8.878 5.86 14.138 0 5.282-2.14 10.42-5.86 14.14zM877.946 615.446h-68.962c24.846 24.784 40.244 59.038 40.244 96.822v227.732c0 11.046-8.954 20-20 20h-155.6c-54.062 0-98.044-43.982-98.044-98.044v-65.738c0-0.14 0.018-0.274 0.020-0.412-0.002-0.138-0.020-0.274-0.020-0.412v-83.126c0-37.784 15.398-72.036 40.244-96.822h-215.722c24.846 24.784 40.244 59.038 40.244 96.822v227.732c0 11.046-8.954 20-20 20h-155.6c-54.062 0-98.044-43.982-98.044-98.044v-65.738c0-0.14 0.018-0.274 0.020-0.412-0.002-0.138-0.020-0.274-0.020-0.412v-83.126c0-37.784 15.398-72.036 40.244-96.822h-45.14c-89.222 0-161.81-72.588-161.81-161.812v-250.608c0-11.044 8.954-20 20-20h316c11.046 0 20 8.956 20 20s-8.954 20-20 20h-205.576v129.122c0 11.044-8.954 20-20 20s-20-8.956-20-20v-129.122h-50.424v230.608c0 67.166 54.644 121.812 121.812 121.812h56.122l65.594-98.13v-119.204c0-11.044 8.954-20 20-20s20 8.956 20 20v118.674l73.052 98.66h72.49c58.478 0 106.054-47.576 106.054-106.054v-82.048c0-11.044 8.954-20 20-20s20 8.956 20 20v82.048c0 41.738-17.626 79.414-45.792 106.054h53.446l68.968-103.176c3.616-5.412 9.64-8.724 16.146-8.88 0.162-0.004 0.322-0.006 0.482-0.006 6.328 0 12.296 2.998 16.072 8.098l76.978 103.962h76.522c58.478 0 106.054-47.576 106.054-106.054v-82.048c0-11.044 8.954-20 20-20s20 8.956 20 20v82.048c0 80.536-65.52 146.056-146.054 146.056zM206.708 861.956c0 32.006 26.038 58.044 58.044 58.044h135.6v-48.58c0-30.438-24.762-55.202-55.202-55.202h-138.442v45.738zM304.364 518.122l-38.318 57.324h80.762l-42.444-57.324zM303.53 615.444c-53.388 0-96.822 43.434-96.822 96.822v63.952h138.442c20.568 0 39.618 6.578 55.202 17.712v-81.664c0-53.388-43.434-96.822-96.822-96.822zM615.582 861.956v0c0.002 32.006 26.042 58.044 58.046 58.044h135.6v-48.58c0-30.438-24.762-55.202-55.202-55.202h-138.444v45.738zM709.208 518.122l-38.318 57.324h80.762l-42.444-57.324zM712.408 615.444c-53.388 0-96.824 43.434-96.824 96.822v63.952h138.444c20.568 0 39.618 6.578 55.202 17.712v-81.664c0-53.388-43.434-96.822-96.822-96.822zM950.81 335.028h-93.026v38.462c0 26.302-21.4 47.704-47.704 47.704h-104.162c-26.304 0-47.704-21.4-47.704-47.704v-38.462h-93.026c-40.356 0-73.19-32.832-73.19-73.19v-252.648c0.002-40.358 32.836-73.19 73.192-73.19h385.622c40.354 0 73.188 32.832 73.188 73.19v252.648c0 40.358-32.834 73.19-73.19 73.19zM705.92 381.194h104.162c4.248 0 7.704-3.456 7.704-7.704v-38.462h-119.568v38.462h-0.002c0 4.248 3.456 7.704 7.704 7.704zM984 9.19c0-18.302-14.888-33.19-33.19-33.19h-385.62c-18.3 0-33.19 14.888-33.19 33.19v144.554h172.756v-3.272c0-29.358 23.884-53.242 53.244-53.242s53.244 23.884 53.244 53.242v3.272h172.756v-144.554zM744.756 150.472v26.542h26.488v-26.542c0-7.3-5.94-13.242-13.244-13.242s-13.244 5.942-13.244 13.242zM984 193.744h-172.756v3.27c0 11.044-8.954 20-20 20h-66.486c-11.046 0-20-8.956-20-20v-3.27h-172.758v68.094c0 18.3 14.888 33.19 33.19 33.19h385.62c18.3 0 33.19-14.888 33.19-33.19v-68.094z" />
<glyph unicode="&#xe924;" glyph-name="null-3" d="M882.014 748.792c-68.89 0-121.376 31.692-156.002 94.192-26.954 48.654-32.748 98.544-32.82 99.18-1.104 10.146-9.674 17.836-19.882 17.836h-322.623c-10.41 0-19.082-8.018-19.936-18.392-0.042-0.498-4.4-50.312-30.628-98.856-33.682-62.346-86.888-93.96-158.138-93.96-11.046 0-20-8.954-20-20v-236.836c0-122.020 36.418-239.27 105.318-339.075 68.948-99.876 165.020-174.468 277.829-215.706 4.156-1.52 9.328-1.612 13.734 0 112.81 41.24 208.882 115.828 277.831 215.706 68.898 99.806 105.318 217.056 105.318 339.075v236.834c0 11.046-8.956 20.002-20.002 20.002zM862.014 491.955c0-228.842-140.342-434.705-350.013-514.647-209.674 79.944-350.015 285.807-350.015 514.647v217.578c76.736 5.796 136.63 45.412 174.002 115.446 19.742 37.002 28.452 73.752 32.134 95.020h288.195c4.158-21.116 13.688-58.038 34.054-95.212 38.206-69.744 97.274-109.268 171.646-115.21v-217.622zM802.012 679.129c-58.376 0.002-105.458 30.116-139.936 89.508-27.072 46.628-35.87 94.394-35.952 94.848-1.692 9.552-9.992 16.512-19.694 16.512h-188.864c-9.34 0-17.438-6.466-19.504-15.574-0.42-1.854-43.574-185.292-176.076-185.292-11.046 0-20-8.954-20-20s8.954-20 20-20c68.74 0 127.938 38.086 171.192 110.14 21.424 35.69 33.808 71.104 39.678 90.726h157.606c5.11-19.898 16.062-55.024 36.422-90.408 41.58-72.262 102.138-110.46 175.13-110.46 11.046 0 20 8.954 20 20-0.002 11.046-8.956 20-20.002 20zM726.469 237.891c-9.088 6.092-21.66 3.59-27.742-5.5-49.242-73.604-113.824-128.546-186.768-158.886-45.5 18.78-88.040 48.26-126.442 87.62-7.504 7.692-20.622 7.822-28.286 0.366-7.832-7.62-8.024-20.452-0.36-28.284 44.462-45.582 94.244-79.204 147.926-99.904 4.682-1.806 9.818-1.782 14.48 0.040 42.502 16.6 82.724 40.802 119.544 71.922 35.042 29.602 66.382 64.882 93.144 104.864 6.142 9.182 3.664 21.62-5.496 27.762zM712.719 509.485l-56.57 56.57c-7.81 7.81-20.474 7.81-28.288 0l-159.864-159.864-71.86 71.86c-7.81 7.81-20.474 7.81-28.288 0l-56.57-56.57c-7.782-7.784-7.814-20.392-0.070-28.216 0 0 141.136-142.56 141.856-143.286 3.68-3.718 8.916-5.614 14.168-5.634 5.216-0.018 10.448 1.814 14.192 5.558 0 0 231.096 231.096 231.294 231.294 7.726 7.726 7.718 20.568 0 28.288zM467.353 292.403l-113.714 114.862 28.358 28.356 71.86-71.86c7.81-7.81 20.474-7.81 28.288 0l159.864 159.864 28.286-28.286-202.942-202.936zM774.010 289.973c0-11.046-8.954-20-20-20s-20 8.954-20 20c0 11.046 8.954 20 20 20s20-8.954 20-20z" />
<glyph unicode="&#xe925;" glyph-name="career" d="M902.926 556.73l-0.164 0.672c-2.654 10.722-13.496 17.26-24.216 14.608-10.72-2.654-17.262-13.494-14.608-24.218l0.12-0.486c2.218-9.152 10.4-15.29 19.418-15.29 1.56 0 3.146 0.184 4.728 0.568 10.732 2.604 17.326 13.414 14.722 24.146zM373.376 307.494c-49.72 30-79.404 82.532-79.404 140.52 0 17.924 2.87 35.536 8.528 52.344 3.524 10.466-2.106 21.81-12.572 25.332-10.466 3.52-21.808-2.108-25.332-12.574-7.044-20.928-10.616-42.832-10.616-65.104 0-72.126 36.912-137.46 98.736-174.766 3.234-1.95 6.794-2.878 10.312-2.878 6.776 0 13.384 3.448 17.14 9.672 5.706 9.456 2.666 21.746-6.792 27.454zM597.766 596.546c-37.974 35.754-87.626 55.446-139.808 55.446-24.438 0-48.35-4.284-71.070-12.728-10.352-3.85-15.624-15.36-11.776-25.714s15.358-15.626 25.714-11.776c18.248 6.784 37.468 10.224 57.134 10.224 41.95 0 81.864-15.828 112.388-44.57 3.862-3.638 8.788-5.44 13.704-5.44 5.32 0 10.628 2.11 14.564 6.29 7.57 8.040 7.188 20.698-0.85 28.268zM1004.002 441.988h-150.452v41.372c0 20.11-16.362 36.472-36.472 36.472h-26.846c-13.748 63.9-45.41 122.1-91.88 168.572-78.854 78.854-191.52 114.020-301.386 94.086-10.866-1.972-18.078-12.38-16.106-23.248s12.382-18.072 23.248-16.106c96.958 17.596 196.386-13.436 265.962-83.016 38.958-38.958 66.13-87.242 79.148-140.29h-109.172c-20.11 0-36.472-16.362-36.472-36.472v-41.372h-150.452c-11.044 0-19.998-8.956-19.998-19.998v-122.678c0-18.772 7.31-35.858 19.216-48.598v-102.628c-78.016 1.332-150.874 32.194-206.492 87.814-71.39 71.39-101.974 173.156-81.812 272.228 2.202 10.822-4.786 21.382-15.608 23.584-10.826 2.204-21.382-4.786-23.584-15.608-22.844-112.258 11.816-227.578 92.72-308.484 62.252-62.252 147.038-97.988 234.774-99.498v-72.466c0-1.876 0.126-3.72 0.348-5.536-228.042 2.836-412.692 189.19-412.692 417.892 0 71.514 18.19 141.418 52.74 203.366l67.474-67.794c3.754-3.772 8.856-5.892 14.174-5.892h125.78l123.306-123.306c3.906-3.906 9.024-5.858 14.14-5.858 5.118 0 10.238 1.952 14.14 5.858 7.81 7.81 7.81 20.472 0 28.284l-123.308 123.306v125.78c0 5.312-2.114 10.406-5.876 14.158l-67.662 67.496c61.868 34.434 131.656 52.562 203.048 52.562 162.232 0 311.16-95.146 379.418-242.398 3.384-7.3 10.608-11.592 18.156-11.592 2.816 0 5.676 0.598 8.398 1.86 10.020 4.646 14.378 16.534 9.734 26.554-36.238 78.176-93.642 144.422-166.012 191.574-74.294 48.41-160.638 73.996-249.692 73.996-82.044 0-162.176-21.858-232.396-63.282l-57.554 57.42c-5.726 5.71-14.322 7.414-21.788 4.314-7.468-3.098-12.332-10.386-12.332-18.47v-113.334h-113.684c-8.082 0-15.366-4.862-18.466-12.322-3.1-7.462-1.408-16.054 4.292-21.782l57.466-57.738c-41.56-70.314-63.49-150.572-63.49-232.758 0-122.324 47.636-237.328 134.132-323.824 86.496-86.498 201.5-134.132 323.824-134.132l501.206-0.022c25.156 0 45.622 20.464 45.622 45.622v215.048c12.4 13.24 19.216 30.414 19.216 48.644v122.644c0 11.042-8.954 19.996-19.998 19.996zM173.876 837.748l114.572-114.288v-77.408l-114.572 114.83v76.866zM145.582 732.614l114.584-114.92h-77.472l-114.378 114.92h77.266zM643.568 479.836h169.982v-37.848h-169.982v37.848zM964.786 126.036h-131.236c-11.044 0-19.998-8.956-19.998-19.998s8.954-19.998 19.998-19.998h131.236v-50.382c0-3.104-2.522-5.628-5.624-5.628h-436.688c-0.144 0.002-0.282 0.022-0.426 0.022h-24.304c-3.002 0.114-5.412 2.574-5.412 5.604v193.452c3.914-0.668 7.93-1.036 12.030-1.036h164.928c3.546-29.564 28.766-52.56 59.27-52.56 30.55 0 55.802 23.068 59.286 52.698l164.864-0.104c0.016 0 0.030 0 0.046 0 4.074 0 8.092 0.36 12.028 1.026v-103.096zM708.846 235.224v35.154h39.432v-35.154c0-10.872-8.846-19.716-19.716-19.716s-19.716 8.844-19.716 19.716zM984.004 299.348c0-8.352-3.252-16.2-9.16-22.102-5.902-5.898-13.744-9.146-22.088-9.146-0.006 0-0.012 0-0.020 0l-164.464 0.104v18.328c0 13.146-10.694 23.842-23.842 23.842h-71.742c-13.146 0-23.842-10.694-23.842-23.842v-18.464h-164.484c-17.23 0-31.246 14.018-31.246 31.246v102.678h510.886v-102.644zM749.708 120.176c-3.72 3.72-8.88 5.86-14.138 5.86-5.28 0-10.418-2.138-14.158-5.86-3.72-3.72-5.84-8.88-5.84-14.138 0-5.26 2.12-10.418 5.84-14.136 3.74-3.72 8.88-5.862 14.158-5.862 5.26 0 10.4 2.14 14.138 5.862 3.72 3.718 5.86 8.878 5.86 14.136s-2.14 10.418-5.86 14.138z" />
<glyph unicode="&#xe926;" glyph-name="null-4" d="M898.899 520.552l-681.411 429.329c-20.145 11.993-45.159 9.995-64.050 9.995-75.567 0-75.232-58.343-75.232-73.124v-877.501c0-12.496-0.331-73.128 75.232-73.128 18.892 0 43.91-1.989 64.050 9.999l681.407 429.325c55.93 33.28 46.266 72.555 46.266 72.555s9.669 39.275-46.261 72.55z" />
<glyph unicode="&#xe927;" glyph-name="null-5" d="M544.219 721.111c19.096-6.583 35.505-17.055 51.352-29.279 53.898-41.582 85.117-115.971 93.266-221.139-25.565 23.195-54.346 42.446-85.763 56.945-7.647 34.167-19.039 61.862-34.186 82.084 1.536-18.889 3.497-43.667 5.486-70.555-22.036 7.832-44.773 14.083-68.402 17.331l-16.742 175.389c18.675-1.276 37.295-4.666 54.989-10.776zM475.732 743c60.145 0 108.947 48.5 108.947 108.5 0 59.942-48.803 108.499-108.947 108.499-60.115 0-108.86-48.557-108.86-108.5 0-60 48.745-108.499 108.86-108.499zM352.032 542.804c7.868 27.306 18.060 49.919 30.577 66.972-0.758-15.388-1.793-35.916-2.941-59.416 21.084 4.945 42.868 7.89 65.211 8.78l20.721 173.165c-20.326-0.694-40.795-3.918-60.001-10.749-7.841-2.776-15.485-6.167-22.708-10.388-12.628-7.334-24.248-16.223-35.252-25.974-43.372-38.277-70.587-99.556-83.045-185.332 26.627 18.195 55.997 32.723 87.441 42.944zM556.036 194.054c-13.274-37.166-48.887-64.028-91.446-64.028-53.816 0-97.495 42.612-97.495 95.14 0 52.557 43.679 95.14 97.495 95.14 14.056 0 27.217-3.279 39.254-8.613l47.265 55.058c-25.366 14.801-54.767 23.693-86.519 23.693-93.546 0-169.368-73.972-169.368-165.277 0-91.251 75.822-165.222 169.368-165.222 79.069 0 144.98 53.167 163.628 124.721l-72.182 9.39zM690.742 260.887c1.147-8.943 1.958-17.944 1.958-27.194 0-125.946-104.938-228.416-234.047-228.416-129.105 0-234.103 102.473-234.103 228.416 0 125.917 104.997 228.389 234.103 228.389 84.643 0 158.478-44.251 199.635-110.081l66.976 25.555c-52.164 91.555-151.954 153.805-266.611 153.805-168.193 0-305.053-133.555-305.053-297.668 0-164.138 136.86-297.693 305.053-297.693 168.191 0 304.996 133.555 304.996 297.693 0 18.139-2.267 35.64-5.517 52.888l-67.391-25.695zM869.014 380.584c4.060-10.167-1.093-21.667-11.594-25.668l-251.068-95.752 15.679-44.998-147.697 19.222 100.293 116.863 18.678-53.499 249.361 95.082c10.473 3.999 22.204-1.056 26.349-11.25z" />
<glyph unicode="&#xe928;" glyph-name="save" d="M931.061 366.948c-0.042 0.011-0.081 0.021-0.124 0.029v0c-10.071 2.445-20.227-3.712-22.714-13.775-52.417-218.855-272.326-353.777-491.178-301.359-129.583 31.037-235.806 123.468-284.448 247.52l67.405 14.196c10.211 1.948 16.909 11.806 14.961 22.017-0.639 3.347-2.174 6.459-4.445 9.001l-60.464 67.51-59.939 66.248c-6.365 8.221-18.187 9.722-26.407 3.357-3.010-2.329-5.242-5.518-6.401-9.141l-28.182-86.122-28.182-85.807c-3.244-9.877 2.135-20.513 12.009-23.757 3.149-1.033 6.514-1.22 9.758-0.534l72.557 15.248c86.409-230.148 343.030-346.671 573.178-260.259 138.34 51.941 241.886 169.148 276.372 312.837 2.495 10.095-3.665 20.298-13.757 22.792zM659.321 724.823h-200.952c-1.522-0.008-2.873-0.978-3.365-2.419l-93.693-286.653c-0.697-1.848 0.234-3.909 2.082-4.608 0.376-0.142 0.776-0.221 1.178-0.229h85.386l-65.722-255.527c-0.618-1.874 0.4-3.896 2.277-4.514 1.317-0.434 2.766-0.068 3.717 0.939l260.365 302.427c1.278 1.504 1.094 3.762-0.41 5.040-0.62 0.528-1.404 0.828-2.219 0.849h-110.939l125.345 239.544c0.3 0.476 0.481 1.017 0.526 1.577 0 1.974-1.598 3.575-3.575 3.575zM662.897 721.247v0 0zM1011.045 618.816c-3.149 1.033-6.514 1.22-9.758 0.534v0.315l-72.557-15.248c-86.411 230.148-343.030 346.671-573.178 260.259-138.34-51.941-241.886-169.148-276.372-312.837-2.040-10.192 4.569-20.111 14.761-22.151 9.672-1.937 19.196 3.92 21.833 13.423 52.417 218.855 272.326 353.777 491.181 301.359 129.583-31.037 235.806-123.468 284.445-247.52l-67.405-14.196c-10.211-1.948-16.909-11.806-14.961-22.017 0.639-3.347 2.174-6.459 4.445-9.001l120.087-134.073c6.365-8.221 18.187-9.722 26.407-3.357 3.010 2.329 5.242 5.518 6.401 9.141l28.182 86.122 28.497 85.491c3.244 9.877-2.132 20.511-12.009 23.755z" />
<glyph unicode="&#xe929;" glyph-name="label" d="M1011.588 389.816c-5.721 20.723-11.107 40.311-11.107 58.185s5.387 37.462 11.107 58.185c9.104 32.988 18.497 67.111 7.256 100.277-11.664 34.502-40.734 57.050-68.847 78.82-16.85 13.066-32.765 25.398-43.094 38.976-10.506 13.845-17.941 32.32-25.776 51.886-12.933 32.142-26.288 65.397-56.204 86.276-29.427 20.567-66.154 22.548-101.613 24.441-22.126 1.18-43.049 2.315-60.567 7.768-16.383 5.097-33.344 15.67-51.285 26.867-28.87 18.030-61.613 38.464-99.476 38.464s-70.606-20.434-99.476-38.486c-17.941-11.196-34.858-21.792-51.263-26.867-17.54-5.453-38.464-6.589-60.589-7.768-35.481-1.914-72.164-3.873-101.613-24.441-29.916-20.879-43.272-54.112-56.204-86.254-7.88-19.566-15.314-38.063-25.821-51.908-10.328-13.623-26.243-25.954-43.094-39.042-28.091-21.792-57.117-44.296-68.781-78.753-11.241-33.188-1.848-67.289 7.234-100.3 5.721-20.723 11.107-40.289 11.107-58.163s-5.387-37.462-11.107-58.185c-9.082-32.988-18.475-67.111-7.234-100.322 11.664-34.457 40.712-57.006 68.803-78.775 16.85-13.044 32.765-25.398 43.071-38.976 10.529-13.845 17.963-32.32 25.821-51.908 12.933-32.142 26.31-65.397 56.249-86.321 29.404-20.523 66.11-22.482 101.568-24.374 22.126-1.18 43.049-2.315 60.567-7.768 16.383-5.097 33.322-15.67 51.24-26.844 28.892-18.008 61.635-38.464 99.521-38.464s70.65 20.456 99.565 38.486c17.919 11.174 34.836 21.747 51.24 26.844 17.518 5.453 38.441 6.589 60.567 7.768 35.481 1.892 72.164 3.851 101.568 24.374 29.983 20.924 43.338 54.223 56.271 86.388 7.857 19.544 15.27 38.019 25.732 51.819 10.328 13.578 26.243 25.932 43.094 38.976 28.113 21.792 57.161 44.318 68.847 78.797 11.241 33.211 1.825 67.312-7.279 100.322zM976.683 303.762c-7.368-21.769-30.005-39.31-53.956-57.874-18.364-14.246-37.373-28.981-51.263-47.234-14.090-18.609-22.994-40.734-31.608-62.17-10.974-27.334-21.346-53.133-40.423-66.443-19.009-13.266-47.879-14.802-78.463-16.427-23.884-1.269-48.614-2.582-71.452-9.705-21.836-6.834-42.047-19.41-61.569-31.608-26.154-16.338-50.84-31.741-75.97-31.741s-49.794 15.403-75.948 31.741c-19.499 12.176-39.688 24.774-61.546 31.608-22.838 7.101-47.568 8.436-71.452 9.705-30.584 1.625-59.476 3.183-78.463 16.427-19.054 13.311-29.449 39.109-40.423 66.421-8.614 21.436-17.54 43.583-31.652 62.192-13.867 18.252-32.877 32.988-51.263 47.256-23.929 18.564-46.544 36.082-53.912 57.851-6.878 20.278 0.356 46.499 7.991 74.234 6.233 22.682 12.688 46.099 12.688 70.027s-6.455 47.323-12.688 70.005c-7.657 27.735-14.869 53.934-7.991 74.212 7.368 21.769 29.961 39.287 53.889 57.851 18.386 14.268 37.418 29.026 51.263 47.301 14.157 18.609 23.060 40.779 31.697 62.214 10.951 27.312 21.324 53.088 40.356 66.354 19.009 13.289 47.924 14.825 78.53 16.449 23.862 1.291 48.592 2.604 71.407 9.727 21.881 6.811 42.092 19.432 61.635 31.63 26.11 16.271 50.773 31.675 75.881 31.675s49.794-15.403 75.926-31.719c19.544-12.22 39.733-24.819 61.613-31.63 22.816-7.101 47.523-8.414 71.407-9.705 30.606-1.625 59.499-3.205 78.508-16.472 19.054-13.311 29.427-39.087 40.378-66.354 8.637-21.458 17.518-43.606 31.675-62.214 13.867-18.252 32.877-32.988 51.24-47.234 23.951-18.586 46.588-36.127 53.956-57.94 6.878-20.234-0.378-46.433-8.013-74.167-6.255-22.682-12.71-46.099-12.71-70.027s6.433-47.345 12.71-70.005c7.66-27.735 14.891-53.934 8.013-74.212zM511.982 781.888c-184.105 0-333.887-149.782-333.887-333.887s149.782-333.887 333.887-333.887 333.887 149.782 333.887 333.887-149.782 333.887-333.887 333.887zM511.982 158.633c-159.553 0-289.369 129.815-289.369 289.369s129.815 289.369 289.369 289.369c82.292 0 156.482-34.702 209.236-90.038l-212.129-298.517-114.924 114.924c-8.703 8.703-22.771 8.703-31.474 0s-8.703-22.771 0-31.474l133.555-133.555c4.185-4.207 9.861-6.522 15.737-6.522 0.601 0 1.247 0.022 1.87 0.089 6.522 0.534 12.487 3.94 16.271 9.282l220.298 310.025c32.053-46.566 50.929-102.882 50.929-163.582 0-159.553-129.815-289.369-289.369-289.369z" />
<glyph unicode="&#xe92a;" glyph-name="money-1" d="M546.488 317.286h-58.545c-21.289 0-38.533 17.244-38.533 38.533s17.244 38.533 38.533 38.533h103.039c14.051 0 25.547 11.496 25.547 25.547s-11.496 25.547-25.547 25.547h-48.326v35.553c0 14.051-11.496 25.547-25.547 25.547s-25.547-11.496-25.547-25.547v-35.553h-3.619c-49.39 0-89.627-40.236-89.627-89.627s40.236-89.627 89.627-89.627h58.545c21.289 0 38.533-17.244 38.533-38.533s-17.244-38.533-38.533-38.533h-104.955c-14.051 0-25.547-11.496-25.547-25.547s11.496-25.547 25.547-25.547h50.242v-36.404c0-14.051 11.496-25.547 25.547-25.547s25.547 11.496 25.547 25.547v36.404h4.258c0.213 0 0.426 0 0.639 0 48.965 0.639 88.349 40.662 88.349 89.627 0 49.39-40.236 89.627-89.627 89.627zM901.163 375.192c-26.824 61.738-63.867 121.56-110.703 177.55-56.629 68.125-113.044 113.683-141.785 134.759l108.574 201.394c5.322 10.006 3.619 22.353-4.684 30.23-28.101 27.463-57.906 40.875-91.117 40.875-30.443 0-58.332-11.496-82.601-21.715-19.16-7.877-37.256-15.541-51.945-15.541-4.471 0-8.303 0.639-12.135 2.129-50.668 18.521-89.627 30.017-127.308 30.017-47.687 0-88.349-19.16-128.16-60.035-8.303-8.516-9.58-21.928-2.98-31.933l117.089-176.911c-28.953-21.502-84.304-66.635-139.869-133.269-46.623-55.99-83.879-115.812-110.703-177.55-33.637-77.705-50.668-158.816-50.668-240.991 0-109.212 88.988-198.2 198.2-198.2h483.26c109.212 0 198.2 88.988 198.2 198.2 0 82.175-17.031 163.286-50.668 240.991zM310.819 873.567c24.695 21.289 48.326 30.656 76.64 30.656 30.23 0 64.293-10.219 109.638-27.037 9.367-3.406 19.373-5.109 29.592-5.109 24.908 0 48.752 9.793 71.531 19.373 21.928 9.154 42.791 17.883 63.015 17.883 9.793 0 23.631-1.703 41.088-14.051l-102.187-189.898h-177.976l-111.341 168.183zM753.63-12.906h-483.26c-81.111 0-147.107 65.996-147.107 147.107 0 136.462 50.029 265.899 148.384 384.692 62.164 75.15 125.392 121.773 144.552 135.398h191.175c19.373-13.412 82.388-60.248 144.552-135.398 98.568-118.793 148.384-248.017 148.384-384.692 0.426-81.111-65.57-147.107-146.681-147.107z" />
<glyph unicode="&#xe92b;" glyph-name="smile" d="M332.801 499.2c42.497 0 76.8 34.303 76.8 76.8s-34.303 76.8-76.8 76.8-76.8-34.303-76.8-76.8 34.303-76.8 76.8-76.8zM691.199 499.2c42.497 0 76.8 34.303 76.8 76.8s-34.303 76.8-76.8 76.8-76.8-34.303-76.8-76.8 34.303-76.8 76.8-76.8zM511.999 243.2c-75.521 0-140.801 41.472-176.383 102.401h-85.759c40.961-104.705 142.848-179.201 262.145-179.201s221.184 74.496 262.145 179.201h-85.759c-35.587-60.929-100.867-102.401-176.388-102.401zM511.488 960c-282.624 0-511.488-229.375-511.488-511.999s228.864-511.999 511.488-511.999c283.135 0 512.512 229.375 512.512 511.999s-229.377 511.999-512.512 511.999zM511.999 38.401c-226.303 0-409.6 183.295-409.6 409.6s183.297 409.598 409.6 409.598 409.6-183.295 409.6-409.598-183.295-409.6-409.6-409.6z" />
<glyph unicode="&#xe92c;" glyph-name="question-1" d="M971.034 747.257h-229.517v52.966c0 29.252-23.713 52.966-52.966 52.966h-635.586c-29.252 0-52.966-23.713-52.966-52.966v-633.821c-0.002-7.139 4.297-13.579 10.893-16.313 6.599-2.734 14.195-1.22 19.244 3.831l169.613 169.613h82.732v-263.062c-0.002-7.139 4.297-13.579 10.893-16.313 6.599-2.734 14.195-1.22 19.244 3.831l169.613 169.613h488.801c29.252 0 52.966 23.713 52.966 52.966v423.724c0 29.25-23.713 52.966-52.966 52.966zM282.483 694.292v-335.448h-90.041c-4.683 0-9.172-1.863-12.482-5.173l-144.649-144.649v591.201c0 9.75 7.905 17.655 17.655 17.655h635.586c9.75 0 17.655-7.905 17.655-17.655v-52.966h-370.759c-29.252 0-52.966-23.715-52.966-52.966zM988.69 270.568c0-9.75-7.905-17.655-17.655-17.655h-496.11c-4.683 0-9.172-1.863-12.482-5.173l-144.649-144.649v591.201c0 9.75 7.905 17.655 17.655 17.655h635.586c9.75 0 17.655-7.905 17.655-17.655v-423.724zM600.276 411.809v158.897c0 29.252-23.713 52.966-52.966 52.966h-88.276c-29.252 0-52.966-23.713-52.966-52.966v-158.897c0-29.252 23.713-52.966 52.966-52.966h88.276c7.865 0.031 15.62 1.841 22.687 5.297l29.396-29.396 24.964 24.964-29.378 29.414c3.456 7.064 5.266 14.822 5.297 22.687zM564.966 419.118l-40.483 40.483-24.964-24.964 40.483-40.483h-80.967c-9.75 0-17.655 7.905-17.655 17.655v158.897c0 9.75 7.905 17.655 17.655 17.655h88.276c9.75 0 17.655-7.905 17.655-17.655v-151.587zM635.586 500.085h70.621v-35.31h-70.621v35.31zM900.414 623.671h-141.241c-9.75 0-17.655-7.905-17.655-17.655v-247.172h35.31v123.586h105.931v-123.586h35.31v247.172c0 9.75-7.905 17.655-17.655 17.655zM882.759 517.74h-105.931v70.621h105.931v-70.621zM105.931 747.257h70.621v-35.31h-70.621v35.31zM211.862 747.257h52.966v-35.31h-52.966v35.31zM105.931 658.982h158.897v-35.31h-158.897v35.31zM105.931 570.706h158.897v-35.31h-158.897v35.31zM105.931 482.43h35.31v-35.31h-35.31v35.31zM176.552 482.43h88.276v-35.31h-88.276v35.31z" />
<glyph unicode="&#xe92d;" glyph-name="plug" d="M689.617 115.14c-6.784 6.788-17.784 6.788-24.57 0.002l-43.972-43.976-13.702 37.384c-2.040 5.568-6.78 9.71-12.572 10.988s-11.832-0.488-16.028-4.682l-55.81-55.81c-6.788-6.786-6.788-17.786-0.002-24.572 6.786-6.782 17.784-6.786 24.572 0l36.572 36.572 13.702-37.386c2.040-5.568 6.78-9.71 12.572-10.988 1.244-0.274 2.498-0.408 3.742-0.408 4.556 0 8.992 1.796 12.286 5.090l63.21 63.212c6.784 6.788 6.784 17.788 0 24.574zM327.081 744c-108.816 0-197.346-88.53-197.346-197.344s88.53-197.346 197.346-197.346 197.342 88.528 197.342 197.346c0.002 108.814-88.526 197.344-197.342 197.344zM327.079 384.057c-89.658 0-162.598 72.94-162.598 162.598 0 89.656 72.94 162.598 162.598 162.598 89.656 0 162.596-72.942 162.596-162.598s-72.94-162.598-162.596-162.598zM327.079 873.734c-9.598 0-17.374-7.778-17.374-17.374v-68.408c0-9.598 7.778-17.376 17.374-17.376 9.598 0 17.374 7.778 17.374 17.374v68.41c0 9.594-7.776 17.374-17.374 17.374zM475.137 86.564h-38.98c-50.564 0-91.704 41.138-91.704 91.704v127.090c0 9.594-7.776 17.374-17.374 17.374s-17.374-7.778-17.374-17.374v-127.090c0-69.724 56.724-126.45 126.45-126.45h38.98c9.598 0 17.374 7.778 17.374 17.374s-7.776 17.372-17.372 17.372zM558.361 777.934c-6.788 6.786-17.786 6.786-24.572 0l-48.374-48.374c-6.786-6.786-6.786-17.784 0-24.568 3.392-3.394 7.838-5.090 12.284-5.090s8.894 1.696 12.286 5.090l48.374 48.374c6.788 6.784 6.788 17.784 0.002 24.568zM168.746 388.319c-6.786 6.782-17.786 6.786-24.572 0l-48.376-48.374c-6.788-6.786-6.788-17.786-0.002-24.572 3.394-3.394 7.838-5.090 12.286-5.090 4.446 0 8.894 1.696 12.284 5.090l48.376 48.374c6.788 6.786 6.788 17.786 0.004 24.572zM636.785 564.027h-68.412c-9.594 0-17.374-7.778-17.374-17.374 0-9.594 7.776-17.374 17.374-17.374h68.412c9.598 0 17.374 7.778 17.374 17.374-0.002 9.596-7.778 17.374-17.374 17.374zM85.784 564.027h-68.41c-9.598 0-17.374-7.778-17.374-17.374 0-9.594 7.776-17.374 17.374-17.374h68.41c9.598 0 17.374 7.778 17.374 17.374s-7.776 17.374-17.374 17.374zM168.744 729.562l-48.376 48.372c-6.782 6.786-17.784 6.782-24.568 0-6.786-6.786-6.786-17.786 0.002-24.572l48.374-48.374c3.392-3.392 7.838-5.090 12.284-5.090s8.892 1.696 12.286 5.090c6.784 6.788 6.784 17.788-0.002 24.574zM558.361 339.943l-48.374 48.374c-6.786 6.786-17.784 6.788-24.574 0-6.786-6.786-6.786-17.784 0-24.568l48.374-48.374c3.394-3.394 7.838-5.090 12.286-5.090 4.446 0 8.894 1.696 12.286 5.090 6.788 6.784 6.788 17.784 0.002 24.568zM1006.628 564.027h-51.678v97.032c0 9.594-7.776 17.374-17.374 17.374s-17.374-7.778-17.374-17.374v-97.032h-87.57v97.032c0 9.594-7.776 17.374-17.374 17.374s-17.374-7.778-17.374-17.374v-97.032h-51.678c-9.598 0-17.374-7.778-17.374-17.374 0-9.594 7.776-17.374 17.374-17.374h18.138v-85.818c0-55.888 41.122-102.346 94.698-110.72v-154.476c0-50.564-41.138-91.704-91.704-91.704h-40.874c-9.598 0-17.374-7.778-17.374-17.374s7.776-17.374 17.374-17.374h40.874c69.726 0 126.45 56.726 126.45 126.45v154.476c53.574 8.374 94.698 54.832 94.698 110.72v85.818h18.138c9.598 0 17.374 7.778 17.374 17.374 0.002 9.598-7.774 17.376-17.37 17.376zM953.742 443.463c0-42.638-34.69-77.324-77.324-77.324s-77.324 34.688-77.324 77.324v85.818h154.65v-85.818zM860.79 456.603c0-9.595-7.779-17.374-17.374-17.374s-17.374 7.779-17.374 17.374c0 9.595 7.779 17.374 17.374 17.374s17.374-7.779 17.374-17.374zM926.812 456.603c0-9.595-7.779-17.374-17.374-17.374s-17.374 7.779-17.374 17.374c0 9.595 7.779 17.374 17.374 17.374s17.374-7.779 17.374-17.374z" />
<glyph unicode="&#xe92e;" glyph-name="ecology-and-environment" d="M734.586 737.391h-68.541c-3.784 26.312-14.136 50.488-29.407 70.856l48.484 48.506c8.704 8.704 8.704 22.795 0 31.477-8.704 8.704-22.773 8.704-31.477 0l-48.484-48.506c-20.391 15.293-44.566 25.645-70.923 29.451v68.563c0 12.288-9.973 22.261-22.261 22.261s-22.261-9.973-22.261-22.261v-68.541c-26.335-3.784-50.51-14.158-70.901-29.429l-48.506 48.506c-8.704 8.704-22.773 8.704-31.477 0s-8.704-22.773 0-31.477l48.506-48.506c-15.271-20.391-25.622-44.566-29.429-70.901h-68.519c-12.288 0-22.261-9.973-22.261-22.261s9.973-22.261 22.261-22.261h68.541c3.784-26.335 14.158-50.532 29.451-70.923l-48.529-48.529c-8.704-8.704-8.704-22.773 0-31.477 4.341-4.341 10.040-6.522 15.738-6.522s11.398 2.182 15.738 6.522l48.529 48.529c20.369-15.271 44.544-25.622 70.856-29.407v-68.541c0-12.288 9.973-22.261 22.261-22.261s22.261 9.973 22.261 22.261v68.563c26.335 3.784 50.51 14.158 70.879 29.429l48.506-48.506c4.341-4.341 10.040-6.522 15.738-6.522s11.398 2.182 15.738 6.522c8.704 8.704 8.704 22.795 0 31.477l-48.506 48.506c15.271 20.391 25.645 44.566 29.429 70.901l68.563-0.022c12.31 0 22.261 9.973 22.261 22.261s-9.951 22.261-22.261 22.261zM512 603.826c-61.373 0-111.304 49.931-111.304 111.304s49.931 111.304 111.304 111.304c61.373 0 111.304-49.931 111.304-111.304s-49.931-111.304-111.304-111.304zM957.217 737.391h-89.043c-12.31 0-22.261-9.973-22.261-22.261s9.951-22.261 22.261-22.261h89.043c12.288 0 22.261-9.995 22.261-22.261v-244.87h-333.913c-12.31 0-22.261-9.973-22.261-22.261s9.951-22.261 22.261-22.261h333.913v-178.087h-445.217v155.826c0 12.288-9.973 22.261-22.261 22.261s-22.261-9.973-22.261-22.261v-155.826h-445.217v178.087h333.913c12.288 0 22.261 9.973 22.261 22.261s-9.973 22.261-22.261 22.261h-333.913v244.87c0 12.266 9.973 22.261 22.261 22.261h89.043c12.288 0 22.261 9.973 22.261 22.261s-9.973 22.261-22.261 22.261h-89.043c-36.819 0-66.783-29.963-66.783-66.783v-489.717c0-0.022 0-0.022 0-0.022s0 0 0-0.022v-178.065c0-36.819 29.985-66.783 66.783-66.783h890.435c36.819 0 66.783 29.963 66.783 66.783v667.826c0 36.819-29.963 66.783-66.783 66.783zM489.739-19.478h-422.957c-12.266 0-22.261 9.995-22.261 22.261v155.826h445.217v-178.087zM979.478 2.783c0-12.266-9.973-22.261-22.261-22.261h-422.957v178.087h445.217v-155.826z" />
<glyph unicode="&#xe92f;" glyph-name="wrench" d="M989.327 160.879l-179.624 179.624-23.965-23.949c-6.682-6.417-17.25-6.417-23.932 0-3.176 3.176-4.962 7.484-4.962 11.974-0.017 4.499 1.778 8.815 4.978 11.974l35.923 35.94-71.863 71.863-71.838-71.846-37.263 37.263 204.045 204.127c7.889-1.183 15.845-1.811 23.816-1.877 58.102 0.058 112.119 29.911 143.073 79.082s34.526 110.788 9.452 163.201l-10.329 21.567-112.053-112.037-39.934 7.964-7.972 39.917 112.045 112.062-21.559 10.337c-56.209 26.992-122.721 20.815-173-16.060-50.288-36.874-76.163-98.458-67.306-160.183l-204.202-204.218-256.309 256.317-13.554 63.304-136.383 81.299-66.612-66.496 82.853-137.896 61.915-12.14 256.209-256.242-203.705-203.73c-72.152 10.246-142.758-26.81-175.324-92.008-32.557-65.198-19.764-143.908 31.772-195.436 51.528-51.528 130.246-64.313 195.436-31.739 65.189 32.566 102.237 103.18 91.991 175.332l203.689 203.705 37.263-37.263-71.846-71.822 71.846-71.863 35.94 35.94c4.838 4.846 12.123 6.293 18.45 3.672s10.453-8.799 10.461-15.646c0.008-4.499-1.778-8.815-4.97-11.991l-23.941-23.949 179.691-179.691c46.326-46.235 121.34-46.235 167.667 0l23.949 23.949c46.211 46.335 46.211 121.34-0.017 167.667zM748.615 881.121c34.228 34.203 84.102 47.559 130.85 35.030l-89.361-89.345 15.977-79.835 79.835-15.969 89.337 89.337c17.019-63.519-14.034-130.089-73.633-157.867-59.607-27.778-130.552-8.749-168.254 45.127s-31.267 127.046 15.249 173.521zM161.439 773.186l-57.317 11.214-61.443 102.295 29.25 29.25 101.038-60.261 12.553-58.632 263.387-263.396-23.982-23.957zM269.59 18.865c-43.341-43.349-110.391-52.206-163.499-21.575-53.107 30.622-79.041 93.091-63.221 152.318 15.812 59.227 69.423 100.459 130.726 100.542 8.939 0 17.854-0.885 26.62-2.621 49.022-9.75 88.7-45.698 103.221-93.521 14.53-47.823 1.546-99.756-33.781-135.117zM331.471 176.376c-1.075 2.762-2.357 5.433-3.821 8.013-17.027 38.933-48.559 69.705-87.906 85.781-1.422 0.728-2.803 1.604-4.234 2.167l451.215 451.248c0.562-1.422 1.439-2.828 2.167-4.234 16.068-39.339 46.839-70.862 85.772-87.881 2.572-1.48 5.259-2.762 8.022-3.845zM568.784 365.825l23.982 23.982 37.263-37.263-23.982-23.982zM965.379 17.161l-23.949-23.949c-33.095-33.012-86.657-33.012-119.752 0l-155.692 155.692c13.008 12.801 18.152 31.59 13.479 49.237-4.672 17.639-18.45 31.416-36.089 36.097s-36.436-0.463-49.237-13.471l-11.991-11.991-23.932 23.965 167.667 167.667 23.949-23.949-11.958-11.974c-19.847-19.839-19.847-52.016 0-71.863 20.112-19.186 51.751-19.186 71.863 0l155.676-155.676c33.029-33.103 33.012-86.699-0.033-119.785zM148.481 209.116l-69.134-69.134 25.305-94.456 94.513-25.305 69.151 69.151-25.313 94.439zM189.010 57.988l-56.688 15.249-15.241 56.68 41.439 41.431 56.672-15.249 15.241-56.647zM652.828 617.668l23.949 23.949 23.949-23.949-23.949-23.957zM317.495 282.343l311.368 311.368 23.949-23.949-311.368-311.368zM654.011 280.639l23.949 23.957 23.957-23.957-23.957-23.949zM701.917 232.725l23.949 23.949 203.598-203.606-23.957-23.949z" />
<glyph unicode="&#xe930;" glyph-name="question-2" d="M1006.933 960h-819.2c-9.425 0-17.067-7.642-17.067-17.067v-136.533h-153.6c-9.425 0-17.067-7.642-17.067-17.067v-597.333c0-9.425 7.642-17.067 17.067-17.067h153.6v-221.867c-0.002-6.901 4.154-13.126 10.53-15.77 2.071-0.864 4.292-1.303 6.537-1.297 4.527 0 8.866 1.801 12.066 5.001l233.933 233.933h402.534c9.425 0 17.067 7.642 17.067 17.067v136.533h153.6c9.425 0 17.067 7.642 17.067 17.067v597.333c0 9.425-7.642 17.067-17.067 17.067zM819.2 209.067h-392.533c-4.527 0-8.866-1.801-12.066-5.001l-209.801-209.801v197.734c0 9.425-7.642 17.067-17.067 17.067h-153.6v563.2h785.067v-563.2zM989.867 362.667h-136.533v426.667c0 9.425-7.642 17.067-17.067 17.067h-631.467v119.467h785.067v-563.2z" />
<glyph unicode="&#xe931;" glyph-name="pdf" d="M1023.723 491.989c-0.128 1.941-0.491 3.797-1.131 5.632-0.235 0.683-0.405 1.344-0.704 2.005-1.024 2.219-2.325 4.309-4.117 6.080-0.021 0.021-0.021 0.021-0.021 0.021l-121.749 121.771v119.168c0 0.469-0.235 0.875-0.277 1.344-0.128 1.877-0.491 3.691-1.088 5.483-0.235 0.683-0.405 1.344-0.725 2.005-1.045 2.261-2.347 4.416-4.181 6.251l-192 192c-1.835 1.835-3.989 3.157-6.272 4.203-0.64 0.277-1.28 0.469-1.92 0.683-1.835 0.64-3.712 1.003-5.632 1.131-0.427 0.021-0.811 0.235-1.237 0.235h-533.333c-11.776 0-21.333-9.557-21.333-21.333v-311.168l-121.749-121.749c0 0-0.021-0.021-0.043-0.043-1.792-1.792-3.072-3.883-4.096-6.080-0.299-0.661-0.469-1.323-0.704-2.005-0.64-1.835-1.024-3.691-1.131-5.632-0.043-0.469-0.277-0.853-0.277-1.323v-405.333c0-11.776 9.557-21.333 21.333-21.333h106.667v-106.667c0-11.776 9.557-21.333 21.333-21.333h725.333c11.776 0 21.333 9.557 21.333 21.333v106.667h106.667c11.776 0 21.333 9.557 21.333 21.333v405.333c0 0.469-0.235 0.853-0.277 1.323zM951.168 512h-55.168v55.168l55.168-55.168zM823.168 768h-119.168v119.168l119.168-119.168zM170.667 917.333h490.667v-170.667c0-11.776 9.557-21.333 21.333-21.333h170.667v-213.333h-682.667v405.333zM128 567.168v-55.168h-55.168l55.168 55.168zM853.333-21.333h-682.667v85.333h682.667v-85.333zM981.333 106.667h-938.667v362.667h938.667v-362.667zM389.419 389.973c-6.891 5.909-14.677 10.091-23.403 12.501-8.704 2.411-17.173 3.627-25.387 3.627h-71.083v-256.768h42.795v102.997h30.464c8.939 0 17.643 1.579 26.112 4.715s15.957 7.979 22.485 14.507c6.528 6.528 11.776 14.677 15.787 24.491 3.989 9.792 5.995 21.205 5.995 34.261 0 14.507-2.24 26.603-6.72 36.267s-10.155 17.472-17.045 23.403zM362.048 298.56c-6.528-7.125-14.869-10.688-25.024-10.688h-24.661v81.6h24.661c10.155 0 18.496-3.136 25.024-9.429s9.792-16.32 9.792-30.101c0-13.781-3.264-24.235-9.792-31.381zM655.424 149.333h43.883v110.251h65.643v37.355h-65.984v69.995h71.424v39.168h-114.965zM513.621 406.101h-64.555v-256.768h64.192c33.131 0 58.219 11.179 75.264 33.536 17.045 22.379 25.557 53.867 25.557 94.485s-8.512 72.235-25.557 94.848c-17.045 22.592-42.005 33.899-74.901 33.899zM566.4 238.016c-2.773-11.264-6.72-20.629-11.776-28.117-5.077-7.488-11.115-13.12-18.133-16.853-7.019-3.755-14.635-5.632-22.848-5.632h-20.672v180.608h20.672c8.213 0 15.829-1.877 22.848-5.632 7.019-3.733 13.056-9.365 18.133-16.853s9.003-16.917 11.776-28.288 4.181-24.661 4.181-39.893c0-14.997-1.408-28.096-4.181-39.339z" />
<glyph unicode="&#xe932;" glyph-name="magnifying-glass" d="M1001.239 70.148l-211.077 211.068c50.868 73.43 76.314 155.276 76.314 245.538 0 58.666-11.389 114.773-34.168 168.309-22.763 53.545-53.536 99.696-92.305 138.466s-84.914 69.542-138.448 92.308c-53.551 22.772-109.654 34.157-168.32 34.157-58.662 0-114.769-11.385-168.305-34.157-53.545-22.765-99.696-53.538-138.466-92.308-38.774-38.769-69.542-84.93-92.31-138.466-22.77-53.542-34.155-109.643-34.155-168.309 0-58.662 11.385-114.75 34.155-168.301 22.765-53.536 53.536-99.681 92.31-138.466 38.769-38.767 84.93-69.527 138.466-92.305 53.542-22.768 109.643-34.15 168.305-34.15 90.266 0 172.114 25.449 245.548 76.312l211.077-210.456c14.769-15.586 33.206-23.384 55.379-23.384 21.746 0 40.304 7.686 55.691 23.074 15.387 15.385 23.071 33.943 23.071 55.689s-7.583 40.201-22.763 55.381zM628.006 332.005c-53.948-53.956-118.866-80.933-194.771-80.933-75.892 0-140.811 26.984-194.763 80.933s-80.927 118.858-80.927 194.763c0 75.892 26.981 140.821 80.927 194.763 53.941 53.954 118.871 80.927 194.763 80.927 75.896 0 140.815-26.984 194.771-80.927 53.956-53.941 80.931-118.871 80.931-194.763 0-75.905-26.984-140.815-80.931-194.763zM610.481 566.147h-137.847v137.845c0 5.335-1.951 9.947-5.845 13.846-3.899 3.899-8.516 5.845-13.844 5.845h-39.386c-5.332 0-9.947-1.946-13.844-5.845-3.895-3.899-5.845-8.512-5.845-13.846v-137.845h-137.847c-5.332 0-9.947-1.951-13.844-5.845-3.899-3.899-5.845-8.512-5.845-13.846v-39.381c0-5.335 1.946-9.952 5.845-13.846 3.899-3.899 8.505-5.848 13.844-5.848h137.847v-137.847c0-5.341 1.951-9.949 5.845-13.853 3.899-3.888 8.512-5.835 13.844-5.835h39.384c5.33 0 9.947 1.946 13.844 5.835 3.895 3.903 5.845 8.512 5.845 13.853v137.847h137.847c5.341 0 9.941 1.951 13.853 5.848 3.888 3.895 5.826 8.512 5.826 13.846v39.381c0 5.335-1.938 9.947-5.826 13.846-3.895 3.895-8.512 5.845-13.851 5.845z" />
<glyph unicode="&#xe933;" glyph-name="link" d="M624.794 560.87c-12.13 12.202-25.579 23.018-40.099 32.25-38.457 24.626-83.165 37.711-128.831 37.711-63.383 0.118-124.19-25.065-168.93-69.961l-217.049-217.219c-44.664-44.75-69.767-105.381-69.807-168.606-0.084-131.936 106.801-238.959 238.737-239.043 63.285-0.22 124.036 24.844 168.76 69.619l179.168 179.168c3.255 3.227 5.073 7.631 5.047 12.214-0.054 9.424-7.739 17.019-17.163 16.965h-6.825c-37.433-0.132-74.533 7.057-109.206 21.158-6.389 2.63-13.732 1.146-18.599-3.753l-128.831-129.001c-40.005-40.005-104.865-40.005-144.87 0s-40.005 104.865 0 144.87l217.903 217.731c39.973 39.923 104.727 39.923 144.7 0 26.939-25.353 68.96-25.353 95.897 0 11.59 11.6 18.617 26.985 19.794 43.342 1.246 19.546-5.963 38.689-19.796 52.555zM953.951 890.027c-93.297 93.297-244.562 93.297-337.859 0l-178.998-178.826c-4.915-4.939-6.333-12.368-3.583-18.771 2.718-6.421 9.068-10.542 16.039-10.408h6.313c37.389 0.068 74.429-7.177 109.036-21.33 6.389-2.63 13.732-1.146 18.599 3.753l128.489 128.319c40.005 40.005 104.865 40.005 144.87 0s40.005-104.865 0-144.87l-160.057-159.885-1.366-1.536-55.968-55.628c-39.973-39.923-104.727-39.923-144.7 0-26.939 25.353-68.96 25.353-95.897 0-11.664-11.688-18.697-27.207-19.794-43.682-1.248-19.546 5.961-38.689 19.794-52.557 19.75-19.834 42.858-36.010 68.254-47.777 3.583-1.706 7.167-3.071 10.75-4.607s7.337-2.73 10.92-4.095c3.583-1.366 7.337-2.56 10.92-3.583l10.068-2.73c6.825-1.706 13.652-3.071 20.646-4.265 8.426-1.252 16.913-2.050 25.425-2.39h12.968l10.238 1.194c3.753 0.17 7.679 1.024 12.116 1.024h5.801l11.774 1.706 5.461 1.024 9.896 2.048h1.878c41.914 10.528 80.188 32.23 110.742 62.795l217.219 217.219c93.303 93.297 93.303 244.562 0.006 337.859z" />
<glyph unicode="&#xe934;" glyph-name="mail-1" d="M512 379.232l139.4-102.382 130.6 100.25v446.924h-540v-446.924l130.6-100.25 139.4 102.382zM469.344 647.362l42.656-42.656 79.656 79.658 42.426-42.426-122.082-122.088-85.082 85.086 42.426 42.426zM0 487.432v-484.328l322.24 236.764zM182 703.934l-181.548-140.874 181.548-139.624zM842 703.934v-280.784l181.91 139.63zM512 960l-97.91-75.974h195.82zM601.84 238.808l-89.84 65.982-501.752-368.79h1003.96l-362.008 265.808zM701.76 239.868l322.24-236.62v483.522z" />
</font>
</defs>
</svg>
